Завантажити та скачати торренти українською


Глобальне вторгнення: Битва Лос-Анджелес / Battle: Los Angeles (2011) 720р Ukr/Eng

Нові коментарі

Нова тема   Відповісти
Чи потрібно робити реліз - Глобальне вторгнення: Битва Лос-Анджелес 1080р Ukr/Eng

Так
66%
 66%  [ 2 ]
Ні
33%
 33%  [ 1 ]
Проголосувало користувачів: 3
Всього віддано голосів: 3
Голосування завершено

Автор Повідомлення
Kuzmenko 
Відео Гуртом - команда HD
Відео Гуртом - команда HD


З нами з: 02.02.10
Востаннє: 03.12.16
Повідомлень: 144

2011-05-22 20:43  
Глобальне вторгнення: Битва Лос-Анджелес / Battle: Los Angeles (2011) 720р Ukr/Eng



Жанр: фантастика, бойовик, трилер
Країна: США



Кіностудія / кінокомпанія: Columbia Pictures / Relativity Media / Original Film
Режисер: Джонатан Лібесман
Актори: Аарон Екхарт Бриджет Мойнехен Мішель Родрігес Майкл Пенья Рамон Родригез Корі Хардрікт Джіно Ентоні Песі Шаффер Сміт Джеймс Хіроюкі Ліао Ноель Фішер

Сюжет:
Людство згуртовує спільний ворог, це стало очевидним, коли невідомі інопланетні загарбники, налаштовані лише на знищення, почали свій наступ, до якого готувалися багато років. На узбережжі міста Ангелів почався бій, перемога у якому - це вирок для життя кожного на планеті, тому про примирення не може бути й мови. Всі сили, уся техніка, уся людська сміливість та розум повинні працювати на повну, щоб зупинити винищувача.


Тривалість: 01:56:10
Якість: 720p
Відео:
кодек:
розмір кадру: 1280 х 536
бітрейт: 5 213 кб/с

Аудіо # 1:
мова: українська
переклад: професійний дубльований
кодек: 5.1
бітрейт: 448 кб/с

Аудіо # 2:
мова: англійська
переклад: оригінал
кодек:
бітрейт: 1510 кб/с

Переклад і озвучення виконано:


Інші релізи:
Ukr/Eng
Theora
Ukr/Eng | Sub Eng
720p-mini
720p Ukr/Eng

ТРЕЙЛЕР

Скріншоти









MediaInfo

General
Complete name : H:\Downloads\Релізи\[Hurtom.com]\Battle.Los-Angeles (2011) [ukr,eng] 720p [Hurtom] by Kuzmenko.mkv
Format : Matroska
File size : 5.82 GiB
Duration : 1h 56mn
Overall bit rate : 7 167 Kbps
Movie name : Battle: LosAngeles (2011) [ukr,eng] 720p [Hurtom] by Kuzmenko
Encoded date : UTC 2011-05-23 20:00:25
Writing application : mkvmerge v4.3.0 ('Escape from the Island') збірка від Sep 5 2010 10:30:51
Writing library : libebml v1.0.0 + libmatroska v1.0.0

Video
ID : 1
Format : AVC
Format/Info : Advanced Video Codec
Format profile : [email protected]
Format settings, CABAC : Yes
Format settings, ReFrames : 5 frames
Muxing mode : Header stripping
Codec ID : V_MPEG4/ISO/AVC
Duration : 1h 56mn
Bit rate : 5 213 Kbps
Width : 1 280 pixels
Height : 536 pixels
Display aspect ratio : 2.35:1
Frame rate : 23.976 fps
Color space : YUV
Chroma subsampling : 4:2:0
Bit depth : 8 bits
Scan type : Progressive
Bits/(Pixel*Frame) : 0.317
Stream size : 4.11 GiB (71%)
Title : Battle: LosAngeles (2011) [ukr,eng] 720p [Hurtom] by Kuzmenko
Writing library : core 115 r1995 c1e60b9
Encoding settings : cabac=1 / ref=5 / deblock=1:-1:-1 / analyse=0x3:0x113 / me=umh / subme=7 / psy=1 / psy_rd=1.00:0.00 / mixed_ref=1 / me_range=16 / chroma_me=1 / trellis=1 / 8x8dct=1 / cqm=0 / deadzone=21,11 / fast_pskip=1 / chroma_qp_offset=-2 / threads=12 / sliced_threads=0 / nr=0 / decimate=1 / interlaced=0 / bluray_compat=0 / constrained_intra=0 / bframes=3 / b_pyramid=2 / b_adapt=2 / b_bias=0 / direct=3 / weightb=1 / open_gop=0 / weightp=2 / keyint=250 / keyint_min=23 / scenecut=40 / intra_refresh=0 / rc_lookahead=40 / rc=2pass / mbtree=1 / bitrate=5213 / ratetol=1.0 / qcomp=0.60 / qpmin=0 / qpmax=69 / qpstep=4 / cplxblur=20.0 / qblur=0.5 / vbv_maxrate=50000 / vbv_bufsize=50000 / nal_hrd=none / ip_ratio=1.40 / aq=1:1.00
Language : English

Audio #1
ID : 2
Format : AC-3
Format/Info : Audio Coding 3
Mode extension : CM (complete main)
Muxing mode : Header stripping
Codec ID : A_AC3
Duration : 1h 56mn
Bit rate mode : Constant
Bit rate : 448 Kbps
Channel(s) : 6 channels
Channel positions : Front: L C R, Side: L R, LFE
Sampling rate : 48.0 KHz
Bit depth : 16 bits
Stream size : 372 MiB (6%)
Title : 5.1 @ 448bps Українська - дубляж
Language : Ukrainian

Audio #2
ID : 3
Format :
Format/Info : Digital Theater Systems
Muxing mode : Header stripping
Codec ID : A_DTS
Duration : 1h 56mn
Bit rate mode : Constant
Bit rate : 1 510 Kbps
Channel(s) : 6 channels
Channel positions : Front: L C R, Side: L R, LFE
Sampling rate : 48.0 KHz
Bit depth : 16 bits
Video delay : 44ms
Stream size : 1.23 GiB (21%)
Title : 5.1 @ 1510 kbps Англійська - оригінал
Language : English

Text
ID : 4
Format : UTF-8
Codec ID : S_TEXT/UTF8
Codec ID/Info : UTF-8 Plain Text
Title : Англійські повні
Language : English
Джерело: &
Особиста оцінка: 10 - без зайвих вагань рекомендую всім!


 Трекер:    Зареєстрований   

Завантажити / скачати фільм українською



відео для новачків



 Зареєстрований:   2011-06-02 20:01
 Розмір:   5.82 GB 
 Оцінка фільму:   9.4/10 (Голосів: 14)
   
сирник 
Частий відвідувач


З нами з: 13.10.10
Востаннє: 17.01.14
Повідомлень: 44

2011-06-01 22:20  
Якась дивна тема: ніби й не анонс, але торент-файл відсутній
Sensetivity 
VIP


З нами з: 03.05.11
Востаннє: 03.01.13
Повідомлень: 2019

2012-01-28 02:42  
Ріп м'яко кажучи хріновий:

trofum911 
Свій


З нами з: 31.01.12
Востаннє: 01.12.16
Повідомлень: 148

2013-01-19 19:21  
якщо пишете що 720р, то має бути 720р, а тут 536, це ж навіть не НD
leroykendall 
Модератор HD


З нами з: 03.01.11
Востаннє: 20.11.16
Повідомлень: 749

2013-01-20 09:05  
trofum911
Що правда? Це ж треба.
Здається декому треба читати що таке 720p.

gamBIT4844 
Новенький


З нами з: 14.04.12
Востаннє: 21.10.16
Повідомлень: 4

2013-01-22 19:06  
Народ, дайте будь ласка більше швидкості.
Закачка 30Кб\с, ...
Хоча б до 300Кб\с
Мені залишилось ще 23.8% дозавантажити.

bravotax 
Новенький


З нами з: 22.01.13
Востаннє: 22.01.13
Повідомлень: 2

2013-01-22 20:40  
Класне кіно, тільки це не HD а rip
ratbol 
Модератор HD


З нами з: 03.02.09
Востаннє: 09.12.16
Повідомлень: 1088

2013-01-22 23:57  
bravotax
Та не вже, а я все-таки думаю, що це HD.
І приберіть посилання у підписі, реклама у нас заборонена.

trofum911 
Свій


З нами з: 31.01.12
Востаннє: 01.12.16
Повідомлень: 148

2013-01-26 13:20  
leroykendall написано:

trofum911

Що правда? Це ж треба.

Здається декому треба читати що таке 720p.


Це не HD. HD формат 720p: 1280 × 720 пікселів. Тут все таки ріп

ratbol 
Модератор HD


З нами з: 03.02.09
Востаннє: 09.12.16
Повідомлень: 1088

2013-01-26 15:15  
Що за цирки розвели, не знаєте, і дурниці пишете. Висота кадру може бути 720р лише тоді, коли співвідношення сторін 16:9 (1.77:1), а, оскільки, співвідношення сторін у більшості фільмів 2.35:1, то до кадру додаються чорні полоси, аби був стандарт 1920 х 1080, тобто 1080р, це для кращої сумісності з усіма пристроями. А коли з них роблять ріпи, то ці полоси обрізаються, і кадр фактично не має 720р по висоті, але це все одно 720p, тобто HD.
Це питання вважаю закритим, тож подальші дописи стосовно нього видалятимуться.

serio321 
Localize Team
Localize Team


З нами з: 10.02.12
Востаннє: 06.12.16
Повідомлень: 26

2016-08-23 04:58  
яке ж він лайно...
Ваш часовий пояс: GMT + 2 Години

Нова тема   Відповісти