Завантажити та скачати торренти українською


Я номер чотири / I Am Number Four (2011) 1080p Ukr/Eng | Sub Ukr/Eng

Нові коментарі

Нова тема   Відповісти
Автор Повідомлення
Kuzmenko 
Відео Гуртом - команда HD
Відео Гуртом - команда HD


З нами з: 02.02.10
Востаннє: 03.12.16
Повідомлень: 144

2011-05-21 22:29  
Я номер чотири / I Am Number Four (2011) BDRRip 1080p Ukr/Eng | Sub Ukr/Eng



Жанр: фантастика, бойовик, трилер
Країна: США



Кіностудія / кінокомпанія: DreamWorks SKG, Reliance Big Entertainment, Bay Films
Режисер: Ді Джей Карузо
Актори: Діанна Агрон, Тімоті Оліфант, Алекс Петтіфер, Тереза Палмер, Кевін Дюран, Джейк Абель, Каллен МакОліффі, Джудіт Хоаг, Бо Мірчофф, Емілі Уікершем

Сюжет:
У центрі сюжету - історія дев'яти жителів однієї з планет, яким вдалося покинути її до того, як вона була зруйнована злими і підступними істотами. У результаті прибульці змушені ховатися на Землі під виглядом тінейджерів. Один з них - номер чотири - незабаром виявляє, що його закляті вороги все ще полюють за ними.


Тривалість: 01:49:34
Якість: 1080p
Відео:
кодек:
розмір кадру: 1920 х 1040
бітрейт: 9 034 кб/с

Аудіо # 1:
мова: українська
переклад: професійний дубльований
кодек: 5.1
бітрейт: 640 кб/с

Аудіо # 2:
мова: англійська
переклад: оригінал
кодек:
бітрейт: 1344 кб/с

Переклад і озвучення виконано:


Субтитри:
мова: українська - надписи
тип: пререндерні

Субтитри:
мова: українська - повні
тип: пререндерні

Субтитри:
мова: англійська - повні
тип: пререндерні

Інші релізи:
Ukr/Eng

Ukr/Eng | Sub Ukr/Eng
720р
720p-mini Ukr/Eng
1080p Ukr/Eng | Sub Ukr/Eng
1080р-mini
Remux 1080p Ukr/Eng | Sub Ukr/Eng

ТРЕЙЛЕР

Скріншоти





MediaInfo
General
Complete name : H:\Downloads\Релізи\[Hurtom.com]\I Am Number Four (2011) [ukr,eng] 1080p [Hurtom] by Kuzmenko.mkv
Format : Matroska
File size : 8.44 GiB
Duration : 1h 49mn
Overall bit rate : 11.0 Mbps
Movie name : I Am Number Four (2011) [ukr,eng] 1080p [Hurtom] by Kuzmenko
Encoded date : UTC 2011-05-21 19:42:06
Writing application : mkvmerge v4.3.0 ('Escape from the Island') збірка від Sep 5 2010 10:30:51
Writing library : libebml v1.0.0 + libmatroska v1.0.0

Video
ID : 1
Format : AVC
Format/Info : Advanced Video Codec
Format profile : [email protected]
Format settings, CABAC : Yes
Format settings, ReFrames : 4 frames
Muxing mode : Header stripping
Codec ID : V_MPEG4/ISO/AVC
Duration : 1h 49mn
Bit rate : 9 034 Kbps
Width : 1 920 pixels
Height : 1 040 pixels
Display aspect ratio : 16:9
Frame rate : 23.976 fps
Color space : YUV
Chroma subsampling : 4:2:0
Bit depth : 8 bits
Scan type : Progressive
Bits/(Pixel*Frame) : 0.189
Stream size : 6.76 GiB (80%)
Title : I Am Number Four (2011) [ukr,eng] 1080p [Hurtom] by Kuzmenko
Writing library : core 115 r1947 b5a8ad7
Encoding settings : cabac=1 / ref=4 / deblock=1:0:0 / analyse=0x3:0x133 / me=umh / subme=8 / psy=1 / psy_rd=1.00:0.00 / mixed_ref=1 / me_range=16 / chroma_me=1 / trellis=1 / 8x8dct=1 / cqm=0 / deadzone=21,11 / fast_pskip=0 / chroma_qp_offset=-2 / threads=18 / sliced_threads=0 / nr=0 / decimate=1 / interlaced=0 / bluray_compat=0 / constrained_intra=0 / bframes=3 / b_pyramid=2 / b_adapt=1 / b_bias=0 / direct=1 / weightb=1 / open_gop=0 / weightp=2 / keyint=250 / keyint_min=23 / scenecut=40 / intra_refresh=0 / rc_lookahead=40 / rc=2pass / mbtree=1 / bitrate=9034 / ratetol=1.0 / qcomp=0.60 / qpmin=0 / qpmax=69 / qpstep=4 / cplxblur=20.0 / qblur=0.5 / ip_ratio=1.40 / aq=1:1.00
Language : English

Audio #1
ID : 2
Format : AC-3
Format/Info : Audio Coding 3
Mode extension : CM (complete main)
Muxing mode : Header stripping
Codec ID : A_AC3
Duration : 1h 49mn
Bit rate mode : Constant
Bit rate : 640 Kbps
Channel(s) : 6 channels
Channel positions : Front: L C R, Side: L R, LFE
Sampling rate : 48.0 KHz
Bit depth : 16 bits
Stream size : 502 MiB (6%)
Title : 5.1 @ 640bps Українська - дубляж
Language : Ukrainian

Audio #2
ID : 3
Format :
Format/Info : Digital Theater Systems
Muxing mode : Header stripping
Codec ID : A_DTS
Duration : 1h 49mn
Bit rate mode : Constant
Bit rate : 1 344 Kbps
Channel(s) : 6 channels
Channel positions : Front: L C R, Side: L R, LFE
Sampling rate : 48.0 KHz
Bit depth : 24 bits
Video delay : 11ms
Stream size : 1.03 GiB (12%)
Title : 5.1 @ 1344 kbps Англійська - оригінал
Language : English

Text #1
ID : 4
Format : PGS
Muxing mode : zlib
Codec ID : S_HDMV/PGS
Codec ID/Info : The same subtitle format used on BDs/HD-DVDs
Title : Українські - надписи
Language : Ukrainian

Text #2
ID : 5
Format : PGS
Muxing mode : zlib
Codec ID : S_HDMV/PGS
Codec ID/Info : The same subtitle format used on BDs/HD-DVDs
Title : Українські повні
Language : Ukrainian

Text #3
ID : 6
Format : PGS
Muxing mode : zlib
Codec ID : S_HDMV/PGS
Codec ID/Info : The same subtitle format used on BDs/HD-DVDs
Title : Англійські повні
Language : English
Джерело: &
Особиста оцінка: 10 - без зайвих вагань рекомендую всім!


 Трекер:    Зареєстрований   

Завантажити / скачати фільм українською



відео для новачків



 Зареєстрований:   2011-05-22 14:36
 Розмір:   8.44 GB 
 Оцінка фільму:   10/10 (Голосів: 14)
   
Інші релізи
hanter31 
Новенький


З нами з: 24.06.11
Востаннє: 03.12.16
Повідомлень: 6

2011-07-11 11:31  
да ну шо за швидкість

Додано через 3 хвилини 4 секунди:

станьте на роздачу хтось плс

hanter31 
Новенький


З нами з: 24.06.11
Востаннє: 03.12.16
Повідомлень: 6

2011-07-15 20:19  
станьте на роздачу плс ше 4 % докачати
simon 2 
Відео Гуртом - підтримка та поширення
Відео Гуртом - підтримка та поширення


З нами з: 27.03.11
Востаннє: 13.05.12
Повідомлень: 341

2011-07-15 20:47  
hanter31 написано:
станьте на роздачу плс ше 4 % докачати

15 людей на роздачі.

Bohdan237 
Відео Гуртом - фільмокрай
Відео Гуртом - фільмокрай


З нами з: 12.02.12
Востаннє: 05.12.16
Повідомлень: 383

2012-03-25 11:16  
класний фільм та ще й в такій якості 9/10
Fantasmagor 
Новенький


З нами з: 14.06.11
Востаннє: 03.12.16
Повідомлень: 24

2012-04-12 13:12  
Гарне кіно.
Jatx_11 
Відео Гуртом - фільмокрай
Відео Гуртом - фільмокрай


З нами з: 20.04.11
Востаннє: 23.10.16
Повідомлень: 700

2012-04-12 16:45  
Kuzmenko написано:
P.S: Все, що менше 10 000 кб/с я не вважаю 1080р

[email protected] 
Відео Гуртом - підтримка та поширення
Відео Гуртом - підтримка та поширення


З нами з: 16.06.12
Востаннє: 05.12.16
Повідомлень: 861

2013-05-13 15:59  
А продовження буде? Друга частина чи щось таке?
Ваш часовий пояс: GMT + 2 Години

Нова тема   Відповісти