Завантажити та скачати торренти українською


Вій - Чорна Рілля (2001) [FLAC] | Dark Ethno Fusion / Rock

Нові коментарі

Нова тема   Відповісти
Автор Повідомлення
Lev 
VIP


З нами з: 14.10.09
Востаннє: 28.11.16
Повідомлень: 1819

2011-05-09 20:32  
Вій - Чорна Рілля (2001) [FLAC] | Dark Ethno Fusion / Rock



Стиль: Dark Ethno Fusion / Rock
Країна, місто: Україна, Київ
Сайти: Офіційний сайт
Видавець: Арт-Велес
Виконавці:
Дмитро Добрий-Вечір - бас-гітара, вокал, тексти і музика
Ігор Лемешко (Хірург) - гітара
Олег Козлов (Льотчик) - гітара
Дмитро Підлуський - барабани
Салман Салманов Мамед-Огли - перкусії

Мастеринг - Сергій Молчанов
потрековий склад виконавців
01. Змія :

Дмитро Добрий-Вечір - музика, вірші (спільно з Віктором Недоступом), головний спів, підспівки, бас-гітара, перкусія, акустична гітара
Ігор Лемешко (Хірург) - головна гітара (соло на акустичній та електричній гітарах)
Дмитро Підлуський - барабани, трикутник
Салман Салманов Мамед-Огли - конги
Віктор Недоступ (Бакс) вигадав мелодію, яку Хірург грає на акустичній гітарі після останнього куплету.
режисер - С.Салицький (студія БЗЗ)

02. У передчутті катаклізму :

Дмитро Добрий-Вечір - музика, вірші, спів, бас-гітара
Олег Козлов (Льотчик) - гітара
Олекса Волинець - барабани
Руслан Мелещенко - конги
Славко Міклухо - віолончель
режисер - О.Ступка (студія БЗЗ)

03. Очі відьми :

Дмитро Добрий-Вечір - музика, вірші, спів, головна гітара
Ігор Лемешко (Хірург) - теж головна гітара
Славко Миклухо - віолончель
Олег Козлов (Льотчик) - друга гітара
Руслан Лемко - конги
режисер - В.Пріма (студія БЗЗ)

04. Політ коршака :

Дмитро Добрий-Вечір - музика, вірші, спів, бас-гітара, підспівки
Ігор Лемешко (Хірург) - головна гітара
Олег Козлов (Льотчик) - друга гітара
О.Волинець - барабани
Руслан Мелещенко - конги
С.Миклухо - віолончель
режисер - О.Ступка (студія БЗЗ)

05. Серед поля навесні :

Дмитро Добрий-Вечір - музика, вірші, спів, бас-гітара
Ігор Лемешко (Хірург) - соло на електрогітарі
Олег Козлов (Льотчик) - гітара
Дмитро Підлуський - барабани
режисер - С.Салицький (студія БЗЗ)

06. Туман :

Дмитро Добрий-Вечір - музика, вірші, спів, бас-гітара
Ігор Лемешко (Хірург) - гітара
Олег Козлов (Льотчик) - гітара
Олекса Волинець - барабани, військовий дробний барабан під час маршу
Руслан Мелещенко - конги, бубен
Віктор Недоступ (Бакс) - тібетський вокал, шизоїдні гасла під час маршу
режисер - О.Ступка (студія БЗЗ)
У приспіві використані цитати з української народної пісні "Туман яром"

07. Менует :

Дмитро Добрий-Вечір - музика, вірші, спів, бас-гітара, великий індіанський барабан
Олег Козлов (Льотчик) - гітара
Салман Салманов Мамед-Огли - брязкіт кайданів
Дмитро Підлуський - конги
режисер - С.Салицький (студія БЗЗ)

08. Закрутило небо колесом :

Дмитро Добрий-Вечір - музика, вірші, спів, бас-гітара
Ігор Лемешко (Хірург) - головна гітара
Олег Козлов (Льотчик) - друга гітара
Дмитро Підлуський - барабани, народні літаври
Салман Салманов Мамед-Огли - бубен
режисер - С.Салицький (студія БЗЗ)

09. Різдв'яна балада :

Дмитро Добрий-Вечір - музика, спів, акустична гітара
Віктор Недоступ (Бакс) - вірші
Григорій Лук'яненко - акустична гітара
дочка Б.Прімакова - плач
режисер - Б.Прімаков (живий запис на 2-канальний магнітофон)

10. Бісова сила (бонус-трек) :

Дмитро Добрий-Вечір - музика, спів, підспівки
Віктор Недоступ (Бакс) - вірші
О.Левадна - спів, підспівки, дихання, зойки
Юрій Товстоган - комп'ютерне програмування, соло-гітара
Олег Козлов (Льотчик) - друга гітара
режисер - Юрій Товстоган (студія "Зимовий сад")

11. Між небом та землею (Алілуя) (бонус-трек) :

Дмитро Добрий-Вечір - музика, вірші, головний спів, конги, бас-гітара
Юрій Товстоган - комп'ютерне програмування, підспівки
Олег Козлов (Льотчик) - соло-гітара
О.Левадна - ефірний спів
режисер накопичення - Юрій Товстоган (студія "Зимовий сад")
режисер зведення - Роман Люзан (студія "Роман-Рекордз")
Пісні:
    01. Змія (03:55)
    02. У передчутті катаклізму (05:34)
    03. Очі відьми (05:17)
    04. Політ коршака (07:46)
    05. Серед поля навесні (03:48)
    06. Туман (06:02)
    07. Менует (02:40)
    08. Закрутило небо колесом (04:10)
    09. Різдв'яна балада (03:42)

    10. Бісова сила (бонус-трек) (03:24)
    11. Між небом та землею (Алілуя) (бонус-трек) (04:22)

Тривалість: 00:50:41
Мова: українська
Аудіо-кодек: FLAC
Бітрейт: 815 кб/с
Джерело: інший торрент-трекер
Додаткова інформація:
Тип ріпу: image+.cue
Скани: +
log EAC
Exact Audio Copy V1.0 beta 1 from 15. November 2010

EAC extraction logfile from 21. April 2011, 20:06

Вій / Чорна Рілля

Used drive : HL-DT-STDVDRAM GSA-H40N Adapter: 2 ID: 0

Read mode : Secure
Utilize accurate stream : Yes
Defeat audio cache : Yes
Make use of C2 pointers : No

Read offset correction : 667
Overread into Lead-In and Lead-Out : No
Fill up missing offset samples with silence : Yes
Delete leading and trailing silent blocks : No
Null samples used in CRC calculations : No
Used interface : Native Win32 interface for Win NT & 2000

Used output format : User Defined Encoder
Selected bitrate : 768 kBit/s
Quality : High
Add ID3 tag : No
Command line compressor : C:\Program Files\Exact Audio Copy\FLAC\FLAC.EXE
Additional command line options : -6 -V -T "ARTIST=%a" -T "TITLE=%t" -T "ALBUM=%g" -T "DATE=%y" -T "TRACKNUMBER=%n" -T "GENRE=%m" -T "COMMENT=%e" %j--picture="%i"%j %s -o %d

TOC of the extracted CD

Track | Start | Length | Start sector | End sector
---------------------------------------------------------
1 | 0:00.00 | 3:55.35 | 0 | 17659
2 | 3:55.35 | 5:33.65 | 17660 | 42699
3 | 9:29.25 | 5:17.47 | 42700 | 66521
4 | 14:46.72 | 7:46.61 | 66522 | 101532
5 | 22:33.58 | 3:47.44 | 101533 | 118601
6 | 26:21.27 | 6:02.04 | 118602 | 145755
7 | 32:23.31 | 2:39.59 | 145756 | 157739
8 | 35:03.15 | 4:09.62 | 157740 | 176476
9 | 39:13.02 | 3:42.24 | 176477 | 193150
10 | 42:55.26 | 3:24.18 | 193151 | 208468
11 | 46:19.44 | 4:22.09 | 208469 | 228127

Range status and errors

Selected range

Filename C:\Users\little\Desktop\Вій - Чорна Рілля\Вій - Чорна Рілля 2001.wav

Peak level 100.0 %
Extraction speed 0.5 X
Range quality 99.9 %
Test CRC 651FFB6C
Copy CRC 651FFB6C
Copy OK

No errors occurred

AccurateRip summary

Track 1 not present in database
Track 2 not present in database
Track 3 not present in database
Track 4 not present in database
Track 5 not present in database
Track 6 not present in database
Track 7 not present in database
Track 8 not present in database
Track 9 not present in database
Track 10 not present in database
Track 11 not present in database

None of the tracks are present in the AccurateRip database

End of status report

==== Log checksum 5299160607A6E9AAD9EDBF3802937F66629AE03AD05A5843BC8B244F8D9E528D ====
Дмитро Добрий-Вечір про відмінності цього та колекційного (2004) видань альбому:

"Якщо уважно прослухати і порівняти ці дві версії, можна почути деякі відмінності у декількох піснях. Наприклад, перша ЗМІЯ відрізняється закінченням, МІЖ ЗЕМЛЕЮ І НЕБОМ у пізнішому варіанті звучить швидше, крім того, додано жіночий вокал на підспіви та перкусію."




Якщо Ви справді бажаєте підтримати українське - після прослуховування, якщо музика вам сподобалась, придбайте ліцензійний диск. Підтримаймо вітчизняних виконавців!


Срібний реліз (на рейтинг впливає 50% завантаженого)
 Трекер:    Зареєстрований   

Завантажити / скачати українську музику



відео для новачків



 Зареєстрований:   2011-05-09 20:34
 Розмір:   316 MB 
 Оцінка музики:   10/10 (Голосів: 13)
   
easyway 
Новенький


З нами з: 09.08.11
Востаннє: 14.08.11
Повідомлень: 1

2011-08-09 23:34  
Це є сучасна класика української музики. Щиро дякую.
Ваш часовий пояс: GMT + 2 Години

Нова тема   Відповісти