Завантажити та скачати торренти українською


Пряма та очевидна загроза / Clear and Present Danger (1994) Ukr/Eng | sub Eng

Нові коментарі

Нова тема   Відповісти
Автор Повідомлення
JACKUS 
Відео Гуртом - фільмокрай
Відео Гуртом - фільмокрай


З нами з: 08.10.09
Востаннє: 08.12.16
Повідомлень: 1943

2011-05-06 19:48  
Пряма та очевидна загроза / Clear and Present Danger (1994) Ukr/Eng | sub Eng



Жанр: бойовик, трилер, драма
Країна: США



Кіностудія / кінокомпанія: Mace Neufeld Productions, Paramount Pictures
Режисер: Філліп Нойс
Актори: Харрісон Форд, Віллем Дефо, Енн Арчер, Хоакім де Альмейда, Генрі Черни, Харріс Юлін, Дональд Моффат, Мігель Сандовал, Бенджамін Бретт, Реймонд Крус

Сюжет:
Джек Райан на цей раз виявляється на чолі відділу розвідки ЦРУ, і вхожий в Овальний кабінет Білого Дому. Він змушений боротися проти колумбійських наркоділків, не відаючи, що при потуранні президента США його помічник з національної безпеки і шеф ЦРУ проводять, за допомогою найманців, бойові операції в Колумбії.


Тривалість: 02:21:15
Якість:
Відео:
кодек:
розмір кадру: 720x320
бітрейт: 1820 кб/с

Аудіо # 1:
мова: українська
переклад: багатоголосий закадровий
кодек: 5.1
бітрейт: 384 кб/с

Аудіо # 2 (окремо)
мова: англійська
переклад: оригінал
кодек: 5.1
бітрейт: 384 кб/с

Переклад і озвучення виконано:


Субтитри:
мова: англійська
тип: програмні (м'які)
формат: *.srt
Скріншоти












Подяку за наданий звук хочу висловити пані olgaya

Джерело: &
Особиста оцінка: 10 - без зайвих вагань рекомендую всім!


Срібний реліз (на рейтинг впливає 50% завантаженого)
 Трекер:    Зареєстрований   

Завантажити / скачати фільм українською



відео для новачків



 Зареєстрований:   2011-05-06 19:48
 Розмір:   2.62 GB 
 Оцінка фільму:   10/10 (Голосів: 19)
   
Ірка-Шкірка 
Свій


З нами з: 08.01.11
Востаннє: 07.12.16
Повідомлень: 127

2011-05-09 01:27  
Класний фільм - вартий перегляду, як і книга, по якій він знятий!
Віктор 
Відео Гуртом - субтитрування
Відео Гуртом - субтитрування


З нами з: 09.01.10
Востаннє: 09.12.16
Повідомлень: 8664

2011-05-09 10:46  
Якщо не помиляюсь тут деякі чоловічі ролі озвучує Владислав Пупков, може хтось підтвердити? бо я не певен.
----------------------
Тепер певен.) Владислав Пупков, Олег Лепенець та інші.

Mirqn 
Відео Гуртом - координатор озвучення


З нами з: 17.06.09
Востаннє: 27.07.15
Повідомлень: 2462

2012-02-08 00:20  
Дякую за реліз. Шкода, що так мало завантажило людей і повноціного сідера давно немає(
IronBee 
Новенький


З нами з: 08.02.10
Востаннє: 09.12.16
Повідомлень: 5

2012-04-02 13:39  
Станьте на роздачу
taras1994 
Почесний оцифрувальник літератури


З нами з: 23.03.12
Востаннє: 30.11.16
Повідомлень: 5096

2012-04-10 19:39  
хто має 100%
я скачав лише 83%, решта намертво не рухається вже тиждень
станьте на роздачу

Віктор 
Відео Гуртом - субтитрування
Відео Гуртом - субтитрування


З нами з: 09.01.10
Востаннє: 09.12.16
Повідомлень: 8664

2012-04-12 15:09  
Було б добре оновити роздачу, доріжка є на сервері.
Укр. саби, з блю рей, також - http://dorizhky.hurtom.com/SUBTITLES/Clear%20and%20Present%20Danger.%281994%29.%5BBlu%20Ray%5D.02h21m15s.23.976fps.%5BHurtom-w2958l%5D.srt

JACKUS 
Відео Гуртом - фільмокрай
Відео Гуртом - фільмокрай


З нами з: 08.10.09
Востаннє: 08.12.16
Повідомлень: 1943

2012-08-23 10:38  
Цитата:
Було б добре оновити роздачу, доріжка є на сервері.
Укр. саби, з блю рей, також - http://dorizhky.hurtom.com/SUBTITLES/Clear%20and%20Present%20Danger.%281994%29.%5BBlu%20Ray%5D.02h21m15s.23.976fps.%5BHurtom-w2958l%5D.srt


Добре. Буде час звісно що оновлю

hellforces 
VIP


З нами з: 25.06.08
Востаннє: 11.11.16
Повідомлень: 1556

2012-09-28 15:50  
цікаве кіно 8\10
igor911 
Відео Гуртом
Відео Гуртом


З нами з: 18.01.08
Востаннє: 09.12.16
Повідомлень: 5198

2013-03-02 14:49  
Віктор написано:
Було б добре оновити роздачу

Міг би викласти якісний 1080р ріп укр/англ, саби укр/англ на 7,5 Гб,
MediaInfo джерела
Общее
Уникальный идентификатор : 198078634447017094490283342200488756085 (0x95048EADFF3ED933AEE1A470572A8375)
Полное имя : Прямая и явная угроза.1994..1080p.Rus.Eng.mkv
Формат : Matroska
Версия формата : Version 4 / Version 2
Размер файла : 7,76 Гбайт
Продолжительность : 2 ч. 21 м.
Общий поток : 7868 Кбит/сек
Название фильма : Прямая и явная угроза.1994
Дата кодирования : UTC 2013-03-01 17:03:37
Программа кодирования : mkvmerge v6.0.0 ('Coming Up For Air') built on Jan 20 2013 09:52:00
Библиотека кодирования : libebml v1.3.0 + libmatroska v1.4.0

Видео
Идентификатор : 1
Формат : AVC
Формат/Информация : Advanced Video Codec
Профиль формата : [email protected]
Параметр CABAC формата : Да
Параметр ReFrames формата : 4 кадра
Идентификатор кодека : V_MPEG4/ISO/AVC
Продолжительность : 2 ч. 21 м.
Битрейт : 6587 Кбит/сек
Ширина : 1920 пикселей
Высота : 848 пикселей
Соотношение сторон : 2,25:1
Режим частоты кадров : Постоянный
Частота кадров : 23,976 кадра/сек
Цветовое пространство : YUV
Субдискретизация насыщенности : 4:2:0
Битовая глубина : 8 бит
Тип развёртки : Прогрессивная
Бит/(Пиксели*Кадры) : 0.169
Размер потока : 6,35 Гбайт (82%)
Заголовок : Rip by Boriy
Библиотека кодирования : core 129 r2245 bc13772
Настройки программы : cabac=1 / ref=4 / deblock=1:0:0 / analyse=0x3:0x113 / me=umh / subme=10 / psy=1 / psy_rd=1.00:0.10 / mixed_ref=1 / me_range=32 / chroma_me=1 / trellis=2 / 8x8dct=1 / cqm=0 / deadzone=21,11 / fast_pskip=0 / chroma_qp_offset=-2 / threads=12 / lookahead_threads=2 / sliced_threads=0 / nr=0 / decimate=0 / interlaced=0 / bluray_compat=0 / constrained_intra=0 / bframes=5 / b_pyramid=2 / b_adapt=2 / b_bias=0 / direct=3 / weightb=1 / open_gop=0 / weightp=2 / keyint=240 / keyint_min=23 / scenecut=40 / intra_refresh=0 / rc=2pass / mbtree=0 / bitrate=6587 / ratetol=1.0 / qcomp=0.60 / qpmin=0 / qpmax=69 / qpstep=4 / cplxblur=20.0 / qblur=0.5 / ip_ratio=1.40 / pb_ratio=1.30 / aq=1:0.80
Язык : English
Default : Да
Forced : Нет

Аудио #1
Идентификатор : 2
Формат : AC-3
Формат/Информация : Audio Coding 3
Расширение режима : CM (complete main)
Параметр Endianness формата : Big
Идентификатор кодека : A_AC3
Продолжительность : 2 ч. 21 м.
Вид битрейта : Постоянный
Битрейт : 640 Кбит/сек
Каналы : 6 каналов
Расположение каналов : Front: L C R, Side: L R, LFE
Частота : 48,0 КГц
Битовая глубина : 16 бит
Метод сжатия : С потерями
Размер потока : 647 Мбайт (8%)
Заголовок : Профессиональный (многоголосый, закадровый)[CEE]
Язык : Russian
Default : Да
Forced : Нет

Аудио #2
Идентификатор : 3
Формат : AC-3
Формат/Информация : Audio Coding 3
Расширение режима : CM (complete main)
Параметр Endianness формата : Big
Идентификатор кодека : A_AC3
Продолжительность : 2 ч. 21 м.
Вид битрейта : Постоянный
Битрейт : 640 Кбит/сек
Каналы : 6 каналов
Расположение каналов : Front: L C R, Side: L R, LFE
Частота : 48,0 КГц
Битовая глубина : 16 бит
Метод сжатия : С потерями
Размер потока : 647 Мбайт (8%)
Заголовок : Оригинал
Язык : English
Default : Нет
Forced : Нет

Текст #1
Идентификатор : 4
Формат : UTF-8
Идентификатор кодека : S_TEXT/UTF8
Идентификатор кодека/Информация : UTF-8 Plain Text
Язык : Russian
Default : Нет
Forced : Нет

Текст #2
Идентификатор : 5
Формат : UTF-8
Идентификатор кодека : S_TEXT/UTF8
Идентификатор кодека/Информация : UTF-8 Plain Text
Язык : English
Default : Нет
Forced : Нет

Меню
00:00:00.000 : :Chapter 1
00:07:51.637 : :Chapter 2
00:12:20.823 : :Chapter 3
00:15:48.072 : :Chapter 4
00:18:47.042 : :Chapter 5
00:25:38.036 : :Chapter 6
00:30:02.550 : :Chapter 7
00:34:02.415 : :Chapter 8
00:40:07.154 : :Chapter 9
00:49:25.420 : :Chapter 10
00:52:49.583 : :Chapter 11
01:02:34.375 : :Chapter 12
01:08:45.538 : :Chapter 13
01:11:21.902 : :Chapter 14
01:20:50.804 : :Chapter 15
01:25:51.146 : :Chapter 16
01:29:03.755 : :Chapter 17
01:36:26.739 : :Chapter 18
01:43:23.780 : :Chapter 19
01:46:47.984 : :Chapter 20
01:54:21.229 : :Chapter 21
02:01:07.093 : :Chapter 22
02:10:17.476 : :Chapter 23
Скріни
але модери HD заклюють згідно "нових" правил розділу, тож робитиму виключно для себе.
Дякую за доріжку та саби на сервері!

Rimbo 
VIP


З нами з: 30.04.11
Востаннє: 07.12.16
Повідомлень: 306

2013-03-02 16:18  
igor911 от би і робив для себе, нащо тоді тут писати? Happy
Ваш часовий пояс: GMT + 2 Години

Нова тема   Відповісти