Завантажити та скачати торренти українською


Бурлаки - Часник / Burlaky - Garlic (1996) [FLAC] | Folk

Нові коментарі

Нова тема   Відповісти
Автор Повідомлення
ssTAss 
Модератор музики


З нами з: 05.07.08
Востаннє: 03.12.16
Повідомлень: 10930

2011-05-04 20:27  
Бурлаки - Часник / Burlaky - Garlic (1996) [FLAC] | Folk



Стиль: Pop Folk
Країна: Канада
Видавець: Burlaky (Made in Canada)
Виконавці:
Taras Mazepa - вокал, труба
Brendan Walsh - вокал, електрогітара, акустична гітара
Andrew Mazepa - клавішні, акордеон, саксофон
Taras Figol - ударні
Andrij Figol - бас гітара
Пісні:
    01. Волиняночка / Volyn' Girl
    02. Писаний Камiнь / Pysanyj Kamin'
    03. Часник / Garlic
    04. Водограй / Waterfountain
    05. Рiдна Мати Моя / Dear Mother
    06. Гори, Гори / Burn Baby Burn
    07. Забава / Zabava
    08. Била Мене Мати / My Mother... -well, you know!
    09. Соловiю / Nightingale
    10. Почуття / Sentiment
    11. Travelog / Подорожовий Часопис
    12. Ой Чий Той Кiнь Стоїть / Oh Whose Horse Stands...
    13. Ой Чий Той Кiнь Стоїть / Oh Whose Horse Stands... (2) (Bonus track)
log

Exact Audio Copy V0.99 prebeta 5 from 4. May 2009

EAC extraction logfile from 5. November 2010, 3:07

Burlaky / Chasnik (Garlic)

Used drive : HL-DT-STDVD-RAM GSA-H54N Adapter: 0 ID: 0

Read mode : Secure
Utilize accurate stream : Yes
Defeat audio cache : Yes
Make use of C2 pointers : No

Read offset correction : 102
Overread into Lead-In and Lead-Out : No
Fill up missing offset samples with silence : Yes
Delete leading and trailing silent blocks : No
Null samples used in CRC calculations : Yes
Used interface : Native Win32 interface for Win NT & 2000

Used output format : User Defined Encoder
Selected bitrate : 320 kBit/s
Quality : High
Add ID3 tag : No
Command line compressor : C:\Program Files\Exact Audio Copy\Flac\flac.exe
Additional command line options : -8 -V %s

TOC of the extracted CD

Track | Start | Length | Start sector | End sector
---------------------------------------------------------
1 | 0:00.00 | 3:31.62 | 0 | 15886
2 | 3:31.62 | 4:59.38 | 15887 | 38349
3 | 8:31.25 | 4:31.12 | 38350 | 58686
4 | 13:02.37 | 4:12.33 | 58687 | 77619
5 | 17:14.70 | 5:31.30 | 77620 | 102474
6 | 22:46.25 | 5:07.65 | 102475 | 125564
7 | 27:54.15 | 3:39.47 | 125565 | 142036
8 | 31:33.62 | 4:07.03 | 142037 | 160564
9 | 35:40.65 | 4:06.00 | 160565 | 179014
10 | 39:46.65 | 5:13.22 | 179015 | 202511
11 | 45:00.12 | 3:49.53 | 202512 | 219739
12 | 48:49.65 | 3:23.62 | 219740 | 235026
13 | 52:13.52 | 1:29.55 | 235027 | 241756

Range status and errors

Selected range

Filename C:\EAC\Burlaky - Chasnik (Garlic).wav

Peak level 100.0 %
Range quality 100.0 %
Test CRC F14D95AD
Copy CRC F14D95AD
Copy OK

No errors occurred

AccurateRip summary

Track 1 not present in database
Track 2 not present in database
Track 3 not present in database
Track 4 not present in database
Track 5 not present in database
Track 6 not present in database
Track 7 not present in database
Track 8 not present in database
Track 9 not present in database
Track 10 not present in database
Track 11 not present in database
Track 12 not present in database
Track 13 not present in database

None of the tracks are present in the AccurateRip database

End of status report
fooCDtect

fooCDtect - foobar2000 + auCDtect, baralgin.

auCDtect: CD records authenticity detector, version 0.8.2
Copyright (c) 2004 Oleg Berngardt. All rights reserved.
Copyright (c) 2004 Alexander Djourik. All rights reserved.

mode: 0

=======================================================
Track: 01 - Волиняночка - Volyn' Girl
Quality: CDDA, 100%
=======================================================
Track: 02 - Писаний Камiнь - Pysanyj Kamin'
Quality: CDDA, 100%
=======================================================
Track: 03 - Часник - Garlic
Quality: CDDA, 100%
=======================================================
Track: 04 - Водограй - Waterfountain
Quality: CDDA, 100%
=======================================================
Track: 05 - Рiдна Мати Моя - Dear Mother
Quality: CDDA, 100%
=======================================================
Track: 06 - Гори, Гори - Burn Baby Burn
Quality: CDDA, 99%
=======================================================
Track: 07 - Забава - Zabava
Quality: CDDA, 100%
=======================================================
Track: 08 - Била Мене Мати - My Mother... -well, you know!
Quality: CDDA, 100%
=======================================================
Track: 09 - Соловiю - Nightingale
Quality: CDDA, 100%
=======================================================
Track: 10 - Почуття - Sentiment
Quality: CDDA, 100%
=======================================================
Track: 11 - Travelog - Подорожовий Часопис
Quality: CDDA, 100%
=======================================================
Track: 12 - Ой Чий Той Кiнь Стоїть - Oh Whose Horse Stands...
Quality: CDDA, 100%
=======================================================
Track: 13 - Ой Чий Той Кiнь Стоїть - Oh Whose Horse Stands... (2) (Bonus track)
Quality: CDDA, 100%
=======================================================
Тривалість: 00:53:43
Мова: українська
Аудіо-кодек: FLAC
Бітрейт: 970 кб/с
Джерело: рутрекер (ripped by Darkman)
Додаткова інформація:
в роздачі присутні скани


Якщо Ви справді бажаєте підтримати українське - після прослуховування, якщо музика вам сподобалась,
придбайте ліцензійний диск.
Підтримаймо вітчизняних виконавців!


Срібний реліз (на рейтинг впливає 50% завантаженого)
 Трекер:    Зареєстрований   

Завантажити / скачати українську музику



відео для новачків



 Зареєстрований:   2011-05-04 20:27
 Розмір:   390 MB 
 Оцінка музики:   4.9/10 (Голосів: 7)
   
Ваш часовий пояс: GMT + 2 Години

Нова тема   Відповісти