Завантажити та скачати торренти українською


Юрій Яценко - Сріблястий кобзи передзвін (2002) [APE] | Ethnic

Нові коментарі

Нова тема   Відповісти
Останній раз роздавалося algol66 (2016-12-11)
Автор Повідомлення
iwan wan 
VIP


З нами з: 01.10.09
Востаннє: 10.12.16
Повідомлень: 1762

2011-04-30 19:19  
Юрій Яценко - Сріблястий кобзи передзвін (2002) [APE] | Ethnic



Стиль: Ethnic
Країна, місто: Україна , Київ
Видавець: Росток-Рекордс
Виконавці:
Юрій Яценко
Пісні:
    01. Українські танцювальні награвання
    02. Наспів та танець
    03. Марш
    04. Фантазія на дві українські теми
    05. Балада
    06. Баркарола
    07. Концертна п'єса на теми білоруських народних пісень
    08. Чардаш (угорський народний танець)
    09. Хора стаккато (румунська народна мелодія)
    10. Гайдуцький танець
    11. Жартівливі словацькі награвання з Міяви
    12. Фантазія на лемківську тему
    13. Дві фольклорески
    14. Українське рондо
    15. Українське інтермеццо

Тривалість: 01:03:10
Мова: інструментал(без слів)
Аудіо-кодек: APE
Бітрейт: 656 кб/с
Джерело: Інший трекер
Додаткова інформація:
Про виконавця і інструмент

Кобза була улюбленим музичним інструментом українського народу протягом усієї його історії. Свідчення, що залишились в пам'ятках, дають підстави вважати, що первинна кобза була принесена в українські землі залишками тюркських племен, котрі на рубежі ХІУ-ХУ століть поселились на середньому Придніпров'ї. Старовинна кобза - струнний інструмент і її еволюцію можна простежити, вивчаючи численні варіанти народної картини "Козак-Мамай". Так, наприклад, наприкінці XVIII століття поруч з основними струнами з'являються коротші приструнки з постійною, як у гусел, настройкою. Згодом за цим новим за конструкцією інструментом закріпилась назва - бандура. Кобза починає виходити з ужитку. Перші спроби відродити кобзу були зроблені в тридцятих роках XX століття. Багаторічна праця дослідників, майстрів, музикантів дала чудові результати. Сьогодні ладкова кобза входить до складу всіх оркестрів українських народних інструментів. Приємний тембр, виразна кантилена, багатство прийомів гри дозволили використовувати кобзу сольно. Зацікавились цим інструментом і сучасні українські композитори, які пишуть твори саме для кобзи. Серед них і уславлені корифеї, і талановита молодь.
Ось уже понад тридцять років в українській народно-інструментальній музиці, в царині кобзового виконавства "задає тон" заслужений артист України Юрій Яценко (1948), який є ініціатором відродження і поновлення виконавських традицій на легендарному інструменті. Свою трудову діяльність він почав у 1970 р. артистом оркестру Державного заслуженого академічного українського народного хору ім. Г. Верьовки. З 1972 року працював у Національному {тоді: Київському) оркестрі народних інструментів України.
Останні роки Ю. Яценко соліст, концертмейстер групи кобз оркестру народних інструментів Національної радіокомпанії України. Він лауреат міжнародних конкурсів, член Американської Асоціації класичної мандоліни (з 1997), член Президії Асоціації діячів народно-інструментальної музики України (з 1992).
Творчий шлях артиста - справжнього професіонала - наповнений яскравими мистецькими звершеннями. Ю. Яценко широко відомий не тільки як віртуоз-інструменталіст, а і як автор майстерних перекладів, яскравих обробок для оркестрів, ансамблів і окремих народних інструментів. З ним - талановитим аранжувальником народної і класичної музики (більше 500 творів опрацьовано митцем) , віртуозом-виконавцем (у фондах радіо понад 150 сольних записів) охоче співпрацюють провідні композитори (В. Кирейко, К. Мясков, В. Полевой, Ю. Шевченко, А. Гайденко, Є. Льонко та ін.), диригенти (В. Гуцал, С. Литвиненко, І. Блажков, В. Сіренко, А. Власенко, В. Жадько та ін.), співаки (Є. Мірошниченко, А. Солов'яненко, Д. Петриненко, Ф. Мустафаєв, О. Таранець, В. Турець та багато інших).
Цей диск знайомить з доробком музиканта в галузі сольного виконавства на кобзі.
Різножанрова і яскрава музика, демонструє як невичерпні художньо виражальні можливості кобзи, так і вагомі набутки української виконавської школи.
Перекладення популярних українських мелодій і народних мелодій різних країн, твори сучасних українських композиторів; естрадні мелодії; все в яскравому і високопрофесійному аранжуванні, виконаному переважно Ю. Яценком - ось такий широкий спектр музики представлено артистом.
Генеральний директор-художній керівник
Національного оркестру народних інструментів України
Народний артист України,
лауреат Національної премії імені Т Шевченка,
професор В. Гуцал
Log

Exact Audio Copy V0.99 prebeta 4 from 23. January 2008
EAC extraction logfile from 3. August 2009, 0:34
Юрій Яценко / Сріблястий кобзи передзвін
Used drive : _NEC DVD_RW ND-3500AG Adapter: 1 ID: 1
Read mode : Secure
Utilize accurate stream : Yes
Defeat audio cache : Yes
Make use of C2 pointers : No
Read offset correction : 48
Overread into Lead-In and Lead-Out : No
Fill up missing offset samples with silence : Yes
Delete leading and trailing silent blocks : No
Null samples used in CRC calculations : No
Used interface : Native Win32 interface for Win NT & 2000
Used output format : Internal WAV Routines
Sample format : 44.100 Hz; 16 Bit; Stereo
TOC of the extracted CD
Track | Start | Length | Start sector | End sector
---------------------------------------------------------
1 | 0:00.00 | 4:51.39 | 0 | 21863
2 | 4:51.39 | 5:35.44 | 21864 | 47032
3 | 10:27.08 | 3:20.74 | 47033 | 62106
4 | 13:48.07 | 5:06.05 | 62107 | 85061
5 | 18:54.12 | 3:15.05 | 85062 | 99691
6 | 22:09.17 | 4:44.12 | 99692 | 121003
7 | 26:53.29 | 4:23.16 | 121004 | 140744
8 | 31:16.45 | 4:14.56 | 140745 | 159850
9 | 35:31.26 | 1:27.58 | 159851 | 166433
10 | 36:59.09 | 4:40.43 | 166434 | 187476
11 | 41:39.52 | 3:07.53 | 187477 | 201554
12 | 44:47.30 | 4:28.38 | 201555 | 221692
13 | 49:15.68 | 4:31.66 | 221693 | 242083
14 | 53:47.59 | 3:49.74 | 242084 | 259332
15 | 57:37.58 | 5:32.20 | 259333 | 284252
Range status and errors
Selected range
Filename E:\Audio\Rip\CD\Яценко }} Юрій\2002.xx.xx-Сріблястий кобзи передзвін\CDImage.wav
Peak level 97.7 %
Range quality 99.9 %
Copy CRC D8095A6C
Copy OK
No errors occurred
AccurateRip summary
Track 1 not present in database
Track 2 not present in database
Track 3 not present in database
Track 4 not present in database
Track 5 not present in database
Track 6 not present in database
Track 7 not present in database
Track 8 not present in database
Track 9 not present in database
Track 10 not present in database
Track 11 not present in database
Track 12 not present in database
Track 13 not present in database
Track 14 not present in database
Track 15 not present in database
None of the tracks are present in the AccurateRip database
End of status report
Якщо Ви справді бажаєте підтримати українське - після прослуховування, якщо музика вам сподобалась, придбайте ліцензійний диск. Підтримаймо вітчизняних виконавців!


Срібний реліз (на рейтинг впливає 50% завантаженого)
 Трекер:    Зареєстрований   

Завантажити / скачати українську музику



відео для новачків



 Зареєстрований:   2011-04-30 19:19
 Розмір:   369 MB 
 Оцінка музики:   10/10 (Голосів: 4)
   
ssTAss 
Модератор музики


З нами з: 05.07.08
Востаннє: 11.12.16
Повідомлень: 10958

2011-04-30 19:45  
iwan wan написано:
(2002) [MP3] | Ethnic

???
і чому починаєте з запізненням ставати на роздачу?
iwan wan написано:
Останній раз роздавалося (Ніколи)

iwan wan 
VIP


З нами з: 01.10.09
Востаннє: 10.12.16
Повідомлень: 1762

2011-04-30 20:05  
Випадково помилився , на роздачу зараз стану
kurgo 
Новенький


З нами з: 11.04.12
Востаннє: 25.11.16
Повідомлень: 15

2015-01-21 11:45  
Існує також платівка 1989 року http://records.su/album/25382




Ваш часовий пояс: GMT + 2 Години

Нова тема   Відповісти