Завантажити та скачати торренти українською


VA - Кращі Українські пісні. Пісні Володимира Івасюка (2004) [FLAC] | Pop/Folk

Нові коментарі

Нова тема   Відповісти
Автор Повідомлення
civ 
VIP


З нами з: 16.02.11
Востаннє: 02.12.16
Повідомлень: 428

2011-04-29 19:32  
VA - Кращі Українські пісні. Пісні Володимира Івасюка (2004) [FLAC] | Pop/Folk


Стиль: Pop/Folk
Країна: Україна
Видавець: Franchising Records
Частина 1 - Пісня буде поміж нас


Пісні:
    01. Пісня буде поміж нас (ВІА «Смерічка», Назарій Яремчук, Василь Зінкевич)
    02. Червона рута (ВІА «Смерічка», Назарій Яремчук, Василь Зінкевич)
    03. Водограй (ВІА «Смерічка», Назарій Яремчук, Надія Пащенко)
    04. Танго без відповіді (Алла Кудлай)
    05. Тільки раз цвіте любов (Софія Ротару)
    06. Запроси мене у сни (Назарій Яремчук)
    07. Вернись із спогадів (Лілія Сандулесу, група «Селена»)
    08. Капелюх (ВІА «Смерічка», Віктор Морозов)
    09. Відлуння твоїх кроків (Людмила Невзгляд)
    10. Я піду в далекі гори (Лідія Відаш)
    11. Балада про дві скрипки (Дует «Писанка»)
    12. Балада про мальви (Софія Ротару)
    13. Калина приморожена (Тріо бандуристок Українського радіо)
    14. Рождение дня (Людмила Артеменко)
    15. Коли я думаю про тебе (Євген Зубко)
    16. У долі своя весна (Лідія Міхайленко)
    17. Два перстені (ВІА «Смерічка», Назарій Яремчук)
    18. Я — твоє крило (Софія Ротару)

Тривалість: 01:01:38
Мова: українська, російська (14)
Аудіо-кодек: FLAC
Бітрейт: 836 кб/с
EAC log

Exact Audio Copy V1.0 beta 1 from 15. November 2010

EAC extraction logfile from 29. April 2011, 8:13

Various / Кращі Українські пісні. Пісні Володимира Івасюка. Частина 1 - Пісня буде поміж нас

Used drive : Optiarc DVD RW AD-7200A Adapter: 0 ID: 0

Read mode : Secure
Utilize accurate stream : Yes
Defeat audio cache : Yes
Make use of C2 pointers : No

Read offset correction : 48
Overread into Lead-In and Lead-Out : No
Fill up missing offset samples with silence : Yes
Delete leading and trailing silent blocks : No
Null samples used in CRC calculations : Yes
Used interface : Native Win32 interface for Win NT & 2000

Used output format : Internal WAV Routines
Sample format : 44.100 Hz; 16 Bit; Stereo

TOC of the extracted CD

Track | Start | Length | Start sector | End sector
---------------------------------------------------------
1 | 0:00.00 | 3:39.72 | 0 | 16496
2 | 3:39.72 | 3:10.40 | 16497 | 30786
3 | 6:50.37 | 3:26.25 | 30787 | 46261
4 | 10:16.62 | 3:39.14 | 46262 | 62700
5 | 13:56.01 | 3:07.54 | 62701 | 76779
6 | 17:03.55 | 3:59.14 | 76780 | 94718
7 | 21:02.69 | 3:36.27 | 94719 | 110945
8 | 24:39.21 | 2:26.40 | 110946 | 121935
9 | 27:05.61 | 2:45.27 | 121936 | 134337
10 | 29:51.13 | 3:14.54 | 134338 | 148941
11 | 33:05.67 | 4:00.36 | 148942 | 166977
12 | 37:06.28 | 4:22.70 | 166978 | 186697
13 | 41:29.23 | 3:19.19 | 186698 | 201641
14 | 44:48.42 | 4:08.24 | 201642 | 220265
15 | 48:56.66 | 3:14.06 | 220266 | 234821
16 | 52:10.72 | 3:48.47 | 234822 | 251968
17 | 55:59.44 | 2:53.58 | 251969 | 265001
18 | 58:53.27 | 2:44.61 | 265002 | 277362

Range status and errors

Selected range

Filename D:\Music\Кращі Українські пісні. Пісні Володимира Івасюка\Частина 1 - Пісня буде поміж нас\Частина 1 - Пісня буде поміж нас.wav

Peak level 97.4 %
Extraction speed 0.1 X
Range quality 99.9 %
Copy CRC 37E51AE8
Copy OK

No errors occurred

End of status report
fooCDtect

fooCDtect - foobar2000 + auCDtect, baralgin.

auCDtect: CD records authenticity detector, version 0.8.2
Copyright (c) 2004 Oleg Berngardt. All rights reserved.
Copyright (c) 2004 Alexander Djourik. All rights reserved.

mode: 0

=======================================================
Track: 01 - Пісня буде поміж нас
Quality: CDDA, 100%
=======================================================
Track: 02 - Червона рута
Quality: CDDA, 100%
=======================================================
Track: 03 - Водограй
Quality: CDDA, 100%
=======================================================
Track: 04 - Танго без відповіді
Quality: CDDA, 100%
=======================================================
Track: 05 - Тільки раз цвіте любов
Quality: CDDA, 86%
=======================================================
Track: 06 - Запроси мене у сни
Quality: CDDA, 100%
=======================================================
Track: 07 - Вернись із спогадів
Quality: CDDA, 99%
=======================================================
Track: 08 - Капелюх
Quality: CDDA, 100%
=======================================================
Track: 09 - Відлуння твоїх кроків
Quality: CDDA, 100%
=======================================================
Track: 10 - Я піду в далекі гори
Quality: CDDA, 100%
=======================================================
Track: 11 - Балада про дві скрипки
Quality: CDDA, 100%
=======================================================
Track: 12 - Балада про мальви
Quality: CDDA, 100%
=======================================================
Track: 13 - Калина приморожена
Quality: CDDA, 100%
=======================================================
Track: 14 - Рождение дня
Quality: CDDA, 100%
=======================================================
Track: 15 - Коли я думаю про тебе
Quality: CDDA, 100%
=======================================================
Track: 16 - У долі своя весна
Quality: CDDA, 100%
=======================================================
Track: 17 - Два перстені
Quality: CDDA, 100%
=======================================================
Track: 18 - Я — твоє крило
Quality: CDDA, 99%
=======================================================
Частина 2 - Відлуння твоїх кроків


Пісні:

    01. Відлуння твоїх кроків (Людмила Артеменко)
    02. Передвістя (Софія Ротару)
    03. У долі своя весна (Лілія Сандулесу, група «Селена»)
    04. Літо пізніх жоржин (Віктор Шпортько)
    05. Я — твоє крило (ВІА «Смерічка», Назарій Яремчук, Надія Пащенко)
    06. Далина (Тріо «Львів’янки»)
    07. Пісня про тебе (Юрій Омельченко)
    08. Кленовий вогонь (Софія Ротару)
    09. Незване моє кохання (ВІА «Водограй», Людмила Артеменко)
    10. Червона рута (ВІА «Смерічка», Назарій Яремчук, Василь Зінкевич)
    11. Чебреці (Василь Бокоч)
    12. Водограй (ВІА «Кобза», Валентина Купріна)
    13. Запроси мене у сни (Максим Шевцов)
    14. Рождение дня (Володимир Удовиченко)
    15. Шумить пшениця, як Дунай (Тріо «Львів’янки»)
    16. День з тобою (Людмила Артеменко)
    17. Я ще не все тобі сказав (Віктор Шпортько)
    18. Колиска вітру (Софія Ротару)

Тривалість: 01:05:50
Мова: українська, російська (14)
Аудіо-кодек: FLAC
Бітрейт: 940 кб/с
EAC log

Exact Audio Copy V1.0 beta 1 from 15. November 2010

EAC extraction logfile from 29. April 2011, 8:41

Various / Кращі Українські пісні. Пісні Володимира Івасюка. Частина 2 - Відлуння твоїх кроків

Used drive : Optiarc DVD RW AD-7200A Adapter: 0 ID: 0

Read mode : Secure
Utilize accurate stream : Yes
Defeat audio cache : Yes
Make use of C2 pointers : No

Read offset correction : 48
Overread into Lead-In and Lead-Out : No
Fill up missing offset samples with silence : Yes
Delete leading and trailing silent blocks : No
Null samples used in CRC calculations : Yes
Used interface : Native Win32 interface for Win NT & 2000

Used output format : Internal WAV Routines
Sample format : 44.100 Hz; 16 Bit; Stereo

TOC of the extracted CD

Track | Start | Length | Start sector | End sector
---------------------------------------------------------
1 | 0:00.00 | 4:19.27 | 0 | 19451
2 | 4:19.27 | 3:39.00 | 19452 | 35876
3 | 7:58.27 | 4:27.06 | 35877 | 55907
4 | 12:25.33 | 4:36.10 | 55908 | 76617
5 | 17:01.43 | 3:26.21 | 76618 | 92088
6 | 20:27.64 | 2:50.59 | 92089 | 104897
7 | 23:18.48 | 4:11.28 | 104898 | 123750
8 | 27:30.01 | 3:01.25 | 123751 | 137350
9 | 30:31.26 | 4:07.55 | 137351 | 155930
10 | 34:39.06 | 3:10.40 | 155931 | 170220
11 | 37:49.46 | 4:22.16 | 170221 | 189886
12 | 42:11.62 | 2:55.30 | 189887 | 203041
13 | 45:07.17 | 4:14.00 | 203042 | 222091
14 | 49:21.17 | 4:28.67 | 222092 | 242258
15 | 53:50.09 | 2:42.10 | 242259 | 254418
16 | 56:32.19 | 3:35.50 | 254419 | 270593
17 | 60:07.69 | 3:34.36 | 270594 | 286679
18 | 63:42.30 | 2:07.18 | 286680 | 296222

Range status and errors

Selected range

Filename D:\Music\Кращі Українські пісні. Пісні Володимира Івасюка\Частина 2 - Відлуння твоїх кроків\Частина 2 - Відлуння твоїх кроків.wav

Peak level 100.0 %
Extraction speed 0.1 X
Range quality 100.0 %
Copy CRC FD07A811
Copy OK

No errors occurred

End of status report
fooCDtect

fooCDtect - foobar2000 + auCDtect, baralgin.

auCDtect: CD records authenticity detector, version 0.8.2
Copyright (c) 2004 Oleg Berngardt. All rights reserved.
Copyright (c) 2004 Alexander Djourik. All rights reserved.

mode: 0

=======================================================
Track: 01 - Відлуння твоїх кроків
Quality: CDDA, 99%
=======================================================
Track: 02 - Передвістя
Quality: CDDA, 100%
=======================================================
Track: 03 - У долі своя весна
Quality: CDDA, 100%
=======================================================
Track: 04 - Водограй
Quality: CDDA, 100%
=======================================================
Track: 05 - Літо пізніх жоржин
Quality: CDDA, 100%
=======================================================
Track: 06 - Я — твоє крило
Quality: CDDA, 100%
=======================================================
Track: 07 - Далина
Quality: CDDA, 100%
=======================================================
Track: 08 - Пісня про тебе
Quality: CDDA, 85%
=======================================================
Track: 09 - Кленовий вогонь
Quality: CDDA, 100%
=======================================================
Track: 10 - Червона рута
Quality: CDDA, 99%
=======================================================
Track: 11 - Незване моє кохання
Quality: CDDA, 100%
=======================================================
Track: 12 - Чебреці
Quality: CDDA, 100%
=======================================================
Track: 13 - Запроси мене у сни
Quality: CDDA, 100%
=======================================================
Track: 14 - Рождение дня
Quality: CDDA, 99%
=======================================================
Track: 15 - Шумить пшениця, як Дунай
Quality: CDDA, 100%
=======================================================
Track: 16 - День з тобою
Quality: CDDA, 100%
=======================================================
Track: 17 - Я ще не все тобі сказав
Quality: CDDA, 100%
=======================================================
Track: 18 - Колиска вітру
Quality: CDDA, 100%
=======================================================
Тривалість: 02:07:28
Мова: українська (34 треки), російська (2 треки)
Аудіо-кодек: FLAC
Бітрейт: 836-940 кб/с
Джерело: Власний ріп
Тип ріпу: image+CUE
Особливості релізу: cue-, log-файл та обкладинки є в роздачі, а також вбудовані ві flac; заповнені теґи композитор, поет та лірика

Додаткова інформація:
Ці диски, мабуть, у першу чергу – для тих, хто має гарну пам’ять на добрі враження. Бо, скоріше за все, небагато знайдеться людей, у яких пісні Володимира Івасюка викликали б інші, не гарні, почуття. Для тих, хто вже заглядав до нас раніше, ці диски – ще й можливість порівняти. Бо якийсь час назад ми пропонували Вашій увазі пісні Івасюка у обробці і виконанні Тараса Чубая з друзями. Але то був – рок. Це ж – так би мовити, класичне виконання. Саме у такому вигляді, як на цих дисках, ці пісні з’явилися на естраді, у ефірі. Саме такими їх почули – і полюбили – мільйони людей. І не тільки в Україні, звісно. Не останню роль, зрозуміло, зіграли в цьому і виконавці – тут Ви почуєте молодих Софію Ротару, Назарія Яремчука, Аллу Кудлай і так далі. Перелік довгий, бо це – два диски, дві години спогадів, усмішок і ще чого завгодно доброго. Бо це – наш Володимир Івасюк. Бо це – добре.

На компакт дисках представлені записи, зроблені кілька десятиліть тому. Саме тому якість звучання – не завжди бездоганна.


Умка




Якщо Ви справді бажаєте підтримати українське - після прослуховування, якщо музика вам сподобалась, придбайте ліцензійний диск. Підтримаймо вітчизняних виконавців!


Срібний реліз (на рейтинг впливає 50% завантаженого)
 Трекер:    Зареєстрований   

Завантажити / скачати українську музику



відео для новачків



 Зареєстрований:   2011-04-29 19:32
 Розмір:   822 MB 
 Оцінка музики:   9.4/10 (Голосів: 16)
   
civ 
VIP


З нами з: 16.02.11
Востаннє: 02.12.16
Повідомлень: 428

2011-04-29 19:48  
Це — одне з перших (якщо взагалі не перші) видань Franchising Records. Поліграфічні огріхи, наплутані імена виконавців та назви пісень, не вказаний музичний супровід, надрукований трек-лист у другій частині не відповідає дійсності (переплутано порядок).
У релізі все виправлено — встановлено всіх виконавців, роки запису. Вся інформація є у теґах.
«Казка гір» у виконанні Лідії Відаш не була реставрована — почуєте у запису. На пізніших дисках ця пісня є у кращій якості.
Але «прикол» цього альбому в тому, що це — перше видання пісень Володимира Івасюка з архіву Українського радіо.

П.С. MP3-релізу я робити не буду. Якщо хтось захоче це зробити — я не проти.

ssTAss 
Модератор музики


З нами з: 05.07.08
Востаннє: 03.12.16
Повідомлень: 10930

2011-04-29 23:17  
крім поальбомно треба ше вказати загальну інформацію (перед стрічкою "джерело")
civ 
VIP


З нами з: 16.02.11
Востаннє: 02.12.16
Повідомлень: 428

2011-04-30 07:15  
Виправив.
Щіро 
Новенький


З нами з: 11.02.12
Востаннє: 01.06.13
Повідомлень: 1

2013-03-19 15:23  
Видання, дійсно споганено, мастєрінг виконан не вірно. Треки дуже кліпіровані. Від цого звук трещить. Окрім цього, напевне, самі ісходні матеріали украінського радіо не блещать якістю.
Порівнюючи записи с ГТРФ Москви - небо і земля. У ГТРФ набагато краща якість творів, аніж у цому виданні. Можливо було б набагато краще, якби "спеціалісти" не втручалис в записи оригіналу.
Тем не менш я щіро вдячен за реліз. Тепер напевно знаю, які саме пісні є у сбірці, і що його треба минати стороною.

mishashamen 
Свій


З нами з: 14.06.09
Востаннє: 02.12.16
Повідомлень: 147

2013-12-13 22:38  
ДЕ завантажити у кращій якості? Тут звук жахливий...
civ 
VIP


З нами з: 16.02.11
Востаннє: 02.12.16
Повідомлень: 428

2013-12-13 22:42  
Якщо ви запитуєте, де взяти в кращій якості саме цей реліз - то ніде. Це ріпи оригінальних дисків.
А якщо - де просто скачати ці пісні в кращій якості, то качайте збірки з серії "Золота колекція". Там є більшість цих пісень. Ну і збірки різних ВІА.

Ваш часовий пояс: GMT + 2 Години

Нова тема   Відповісти