Завантажити та скачати торренти українською


Валерій Маренич - Колекція (Два альбоми) (2005-2006) [FLAC] | Bard

Нові коментарі

Нова тема   Відповісти
Останній раз роздавалося Bulick (2016-12-04)
Автор Повідомлення
Anonymous 







2011-04-27 16:43  
Валерій Маренич - Колекція (Два альбоми) (2005-2006) [FLAC] | Bard



Стиль: Bard
Країна, місто: Україна ,Луцьк
Сайти: Офіційний сайт
Видавець: GroLis , Taras Bulba ent.
Виконавці:
Валерій Маренич -вокал , гітара

Альбоми:
2005 - Пісні Волинських авторів(Taras Bulba ent.)


Пісні:
01 О соловiю
02 В мене вкрала спокiй
03 Вернись
04 Виший кохана сорочку
05 Эдно эст жиче
06 Живе наша мова
07 Журавлi
08 Кажуть любов не вiчна
09 Мелодiя вогню
10 Моя адзiнота
11 Очерет
12 Причипивсь ведмiдь до зайця
13 Сповiдь
14 Так завжди у нас було
15 Побажання на свято
16 Я пишу тобi знову листа
17 Береза
Тривалість: 1:10:25
Мова: українська(1-4, 6-17) , польська(5)
Аудіо-кодек: MP3
Бітрейт: 780 кб/с
log

Exact Audio Copy V1.0 beta 1 from 15. November 2010
EAC extraction logfile from 25. January 2011, 22:08
Валерій Маренич / Пісні Волинських авторів
Used drive : PIONEER DVD-RW DVR-212 Adapter: 8 ID: 0
Read mode : Secure
Utilize accurate stream : Yes
Defeat audio cache : Yes
Make use of C2 pointers : No
Read offset correction : 48
Overread into Lead-In and Lead-Out : No
Fill up missing offset samples with silence : Yes
Delete leading and trailing silent blocks : No
Null samples used in CRC calculations : Yes
Used interface : Installed external ASPI interface
Used output format : Internal WAV Routines
Sample format : 44.100 Hz; 16 Bit; Stereo
TOC of the extracted CD
Track | Start | Length | Start sector | End sector
---------------------------------------------------------
1 | 0:00.00 | 2:50.04 | 0 | 12753
2 | 2:50.04 | 2:57.23 | 12754 | 26051
3 | 5:47.27 | 5:31.31 | 26052 | 50907
4 | 11:18.58 | 3:49.65 | 50908 | 68147
5 | 15:08.48 | 3:54.47 | 68148 | 85744
6 | 19:03.20 | 5:02.05 | 85745 | 108399
7 | 24:05.25 | 3:13.24 | 108400 | 122898
8 | 27:18.49 | 3:56.37 | 122899 | 140635
9 | 31:15.11 | 3:13.43 | 140636 | 155153
10 | 34:28.54 | 5:12.63 | 155154 | 178616
11 | 39:41.42 | 3:44.57 | 178617 | 195473
12 | 43:26.24 | 2:12.36 | 195474 | 205409
13 | 45:38.60 | 6:28.68 | 205410 | 234577
14 | 52:07.53 | 3:54.51 | 234578 | 252178
15 | 56:02.29 | 3:35.34 | 252179 | 268337
16 | 59:37.63 | 4:36.35 | 268338 | 289072
17 | 64:14.23 | 6:10.48 | 289073 | 316870
Range status and errors
Selected range
Filename J:\MP3\Тріо Маренич (FLAC)\Валерий Маренич - Пісні Волинських авторів (2005)\Валерій Маренич - Пісні Волинських авторів.wav
Peak level 100.0 %
Extraction speed 0.1 X
Range quality 99.9 %
Test CRC 683612F2
Copy CRC 683612F2
Copy OK
No errors occurred
AccurateRip summary
Track 1 not present in database
Track 2 not present in database
Track 3 not present in database
Track 4 not present in database
Track 5 not present in database
Track 6 not present in database
Track 7 not present in database
Track 8 not present in database
Track 9 not present in database
Track 10 not present in database
Track 11 not present in database
Track 12 not present in database
Track 13 not present in database
Track 14 not present in database
Track 15 not present in database
Track 16 not present in database
Track 17 not present in database
None of the tracks are present in the AccurateRip database
End of status report
==== Log checksum A3275A502DA82B136E630F911217A784BB38F364CC34AE66981FDD6E88CEA176 ====
2006 - Ген, на узліссі хрест мовчить... Пісні Волинських авторів (Наживо)GroLis


Пісні:
01. Вернись
02. Причепивсь, ведмідь до зайця
03. Живе наша мова
04. Ген, на узліссі хрест мовчить...
05. Ідея нації
06. Мая адзінота
07. Na Opolskiem rynky...
08. Нами снили польські пущі
09. Так завжди у нас було
10. Рушали хлопці...
11. Що побажаю я тобі на свято
12. Сповідь сивого клену
13. Вірую
14. Очерет мені був за колиску...
15. Зв'язкова
Тривалість: 00:42:50
Мова: українська(1-5,8-15) , польська(7)., білоруська(6)
Аудіо-кодек: MP3
Бітрейт: 780 кб/с
log

Exact Audio Copy V0.99 prebeta 5 from 4. May 2009
EAC extraction logfile from 11. November 2010, 23:55
Валерий Маренич / Ген, на узліссі хрест мовчить...
Used drive : PIONEER DVD-RW DVR-212 Adapter: 8 ID: 0
Read mode : Secure
Utilize accurate stream : Yes
Defeat audio cache : Yes
Make use of C2 pointers : No
Read offset correction : 48
Overread into Lead-In and Lead-Out : No
Fill up missing offset samples with silence : Yes
Delete leading and trailing silent blocks : No
Null samples used in CRC calculations : Yes
Used interface : Installed external ASPI interface
Used output format : Internal WAV Routines
Sample format : 44.100 Hz; 16 Bit; Stereo
TOC of the extracted CD
Track | Start | Length | Start sector | End sector
---------------------------------------------------------
1 | 0:00.00 | 7:54.28 | 0 | 35577
2 | 7:54.28 | 3:38.00 | 35578 | 51927
3 | 11:32.28 | 5:23.52 | 51928 | 76204
4 | 16:56.05 | 5:34.60 | 76205 | 101314
5 | 22:30.65 | 5:08.45 | 101315 | 124459
6 | 27:39.35 | 4:38.31 | 124460 | 145340
7 | 32:17.66 | 4:38.24 | 145341 | 166214
8 | 36:56.15 | 5:06.24 | 166215 | 189188
9 | 42:02.39 | 4:46.45 | 189189 | 210683
10 | 46:49.09 | 4:34.51 | 210684 | 231284
11 | 51:23.60 | 4:33.73 | 231285 | 251832
12 | 55:57.58 | 5:59.69 | 251833 | 278826
13 | 61:57.52 | 5:23.16 | 278827 | 303067
14 | 67:20.68 | 3:00.56 | 303068 | 316623
15 | 70:21.49 | 5:06.45 | 316624 | 339618
Range status and errors
Selected range
Filename J:\MP3\Тріо Маренич (FLAC)\Валерий Маренич - Ген, на узліссі хрест мовчить... (2006)\Валерий Маренич - Ген, на узліссі хрест мовчить.wav
Peak level 100.0 %
Range quality 100.0 %
Test CRC 99568975
Copy CRC 99568975
Copy OK
No errors occurred
AccurateRip summary
Track 1 not present in database
Track 2 not present in database
Track 3 not present in database
Track 4 not present in database
Track 5 not present in database
Track 6 not present in database
Track 7 not present in database
Track 8 not present in database
Track 9 not present in database
Track 10 not present in database
Track 11 not present in database
Track 12 not present in database
Track 13 not present in database
Track 14 not present in database
Track 15 not present in database
None of the tracks are present in the AccurateRip database
End of status report
Тривалість: 02:25:53
Мова: українська , польська, білоруська (див. поальбомно)
Аудіо-кодек: FLAC
Бітрейт: 780 кб/с
Джерело: Інший трекер
Додаткова інформація:
Біографія

Маренич Валерій Петрович народився 1 січня 1946 року в м.Кривий Ріг Дніпропетровської області. В 1971 році разом з майбутньою дружиною Антоніною Сухоруковою організували співочий дует, який зайняв перше місце на огляді ВІА (вокально-інструментальних ансамблів) у м.Харкові. В 1973 році до дуету долучилась сестра Антоніни - Світлана, так з'явилось "Тріо Маренич". В репертуарі "Тріо" були як народні пісні, так і авторські, в основному українською мовою. Серед них - "Сиджу я край віконечка", "Посилала мене мати", "Ой, у гаю при Дунаю", "Несе Галя воду", "Ой, під вишнею…", "Тиша навкруги", "Чом ти не прийшов?" та інші. В 1979 році фірма "Мелодія" записала їх першу платівку, а "Укртелефільм" зробив її відеоверсію. В цьому ж році учасникам групи - Мареничу Валерію, Маренич (Сухоруковій) Антоніні та Маренич (Сухоруковій) Світлані було присвоєно звання Заслужених артистів Української РСР.

* Альбоми в складі "Тріо": "Три тополі" (1998 р.)
* "Ой, під вишнею"(2000 р.)
* "Мареничі"(2003 р.)
* "Краще" (2004 р.).

8 лютого 2003 р. за вагомий особистий внесок у розвиток української пісенної спадщини, багаторічну плідну творчу діяльність, Указом Президента України Валерію Петровичу Мареничу присвоєне звання Народного артиста України.

З 2005 р. Валерій Петрович Маренич виступає самостійно.

* За цей час випустив альбоми: "Пісні Волинських авторів" " (2005 р.)
* "Ген, на узліссі хрест мовчить" (2006 р.)
* "Ідея нації" " (2008 р.)
* "Без адреси" (2010 р.)
Якщо Ви справді бажаєте підтримати українське - після прослуховування, якщо музика вам сподобалась, придбайте ліцензійний диск. Підтримаймо вітчизняних виконавців!


Срібний реліз (на рейтинг впливає 50% завантаженого)
 Трекер:    Зареєстрований   

Завантажити / скачати українську музику



відео для новачків



 Зареєстрований:   2011-04-27 16:43
 Розмір:   929 MB 
 Оцінка музики:   10/10 (Голосів: 4)
   
ssTAss 
Модератор музики


З нами з: 05.07.08
Востаннє: 05.12.16
Повідомлень: 10939

2011-04-28 00:09  
iwan wan-е, у Вас постійні проблеми з пробілами і з bb-кодами
чому? неуважні жах))
поправив

Ваш часовий пояс: GMT + 2 Години

Нова тема   Відповісти