Завантажити та скачати торренти українською


VA - Кращі пісні української естради ХХ століття (2CD) (2005-2006) [FLAC] | Pop

Нові коментарі

Нова тема   Відповісти
Автор Повідомлення
ssTAss 
Модератор музики


З нами з: 05.07.08
Востаннє: 08.12.16
Повідомлень: 10947

2011-04-26 18:43  
VA - Кращі пісні української естради ХХ століття (2CD) (2005-2006) [FLAC] | Pop



Стиль: Pop, Retro (Естрада)
Країна: Україна
Видавець: Астра Рекордс
Пісні:
    2005 vol.1



    1. Червона рута (Вокально-інструментальний ансамбль Смерічка)
    музика: В. Івасюк
    слова: В. Івасюк
    2. Зелен клен (анс. "Мрія")
    музика: І. Поклад
    слова: Ю. Рибчинський
    3. Очі волошкові (анс. під керівн. В. Рязанцева)
    музика: С. Сабадаш
    слова: А. Драгомирецький
    4. Не топчіть конвалій (жін. вок. квартет та інстр. анс. під кер. М. Скорика)
    музика: М. Скорик
    слова: Р. Братунь
    5. Марічка (А. Кондратюк)
    музика: С. Сабадаш
    слова: М. Ткач
    6. Гуцулка Ксеня (Алла Кудлай)
    музика: Я. Барнич
    слова: Я. Барнич
    7. Прилетіла ластівка (О. Таранець)
    музика: О. Білаш
    слова: М. Ткач
    8. Я піду в далекі гори (Л. Відаш)
    музика: В. Івасюк
    слова: В. Івасюк
    9. Гай, зелений гай (Вокально-інструментальний ансамбль Смерічка)
    музика: О.Злотник
    слова: Ю. Рибчинський
    10. Тиша навкруги (Тріо Маренич)
    музика: О. Богачук
    слова: О. Богачук
    11. Черемшина (Дмитро Гнатюк)
    музика: В. МИхайлюк
    слова: М. Юрійчук
    12. Балада про дві скрипки (Дует "Писанка")
    музика: В. Івасюк
    слова: В. Марсюк
    13. Цвітуть осінні тихі небеса (Микола Кондратюк)
    музика: О. Білаш
    слова: А. Малишко
    14. Верховино, мати моя (К. Силантьєв)
    музика: М. Машкін
    слова: М. Машкін
    15. Київський вальс (Л. Маковецька, О. Трофимчук)
    музика: П. Майборода
    слова: А. Малишко
    16. Намалюй мені ніч (Л. Чайковська)
    музика: М. Скорик
    слова: М. Петренко
    17. Запроси мене у сни (Назарій Яремчук)
    музика: В. Івасюк
    слова: Б. Стельмах
    18. Берег любові (Іво Бобул, Лілія Сандулеса)
    музика: Г. Татарченко
    слова: В. Крищенко
    19. Тече вода (Софія Ротару)
    музика: І. Поклад
    слова: Ю. Рибчинський
    20. Ти і я – одна сім’я (Кобза)
    музика: П. Майборода
    слова: М. Ткач
    21. Україна (Тарас Петриненко)
    музика: Т. Петриненко
    слова: Т. Петриненко

    Тривалість: 01:18:40
    log
    Exact Audio Copy V0.99 prebeta 4 from 23. January 2008

    EAC extraction logfile from 16. July 2009, 12:37

    Various / The Best Songs of Ukrainian Variety of XX Century - Vol. 1

    Used drive : HL-DT-STDVD-RAM GSA-H55N Adapter: 1 ID: 0

    Read mode : Secure
    Utilize accurate stream : Yes
    Defeat audio cache : Yes
    Make use of C2 pointers : No

    Read offset correction : 102
    Overread into Lead-In and Lead-Out : No
    Fill up missing offset samples with silence : Yes
    Delete leading and trailing silent blocks : No
    Null samples used in CRC calculations : Yes
    Used interface : Installed external ASPI interface
    Gap handling : Appended to previous track

    Used output format : User Defined Encoder
    Selected bitrate : 1024 kBit/s
    Quality : High
    Add ID3 tag : No
    Command line compressor : C:\Program Files\Exact Audio Copy\Flac\flac.exe
    Additional command line options : -8 -V -T "ARTIST=%a" -T "TITLE=%t" -T "ALBUM=%g" -T "DATE=%y" -T "TRACKNUMBER=%n" -T "GENRE=%m" -T "COMMENT=EAC FLAC -8" %s

    TOC of the extracted CD

    Track | Start | Length | Start sector | End sector
    ---------------------------------------------------------
    1 | 0:00.00 | 3:09.26 | 0 | 14200
    2 | 3:09.26 | 4:14.27 | 14201 | 33277
    3 | 7:23.53 | 3:02.08 | 33278 | 46935
    4 | 10:25.61 | 2:08.23 | 46936 | 56558
    5 | 12:34.09 | 2:29.22 | 56559 | 67755
    6 | 15:03.31 | 4:00.07 | 67756 | 85762
    7 | 19:03.38 | 3:48.17 | 85763 | 102879
    8 | 22:51.55 | 3:12.27 | 102880 | 117306
    9 | 26:04.07 | 3:06.11 | 117307 | 131267
    10 | 29:10.18 | 3:13.29 | 131268 | 145771
    11 | 32:23.47 | 4:13.44 | 145772 | 164790
    12 | 36:37.16 | 4:01.27 | 164791 | 182892
    13 | 40:38.43 | 4:30.25 | 182893 | 203167
    14 | 45:08.68 | 3:49.66 | 203168 | 220408
    15 | 48:58.59 | 4:46.26 | 220409 | 241884
    16 | 53:45.10 | 3:29.46 | 241885 | 257605
    17 | 57:14.56 | 3:56.73 | 257606 | 275378
    18 | 61:11.54 | 4:55.28 | 275379 | 297531
    19 | 66:07.07 | 3:50.68 | 297532 | 314849
    20 | 69:58.00 | 3:22.52 | 314850 | 330051
    21 | 73:20.52 | 5:19.19 | 330052 | 353995

    Track 1

    Filename E:\+DVD Projects\+UPLOAD\2CD_The Best Songs of Ukrainian Variety of XX Century\Vol.1\01. ВІА «Смерічка» - Червона рута.wav

    Pre-gap length 0:00:02.00

    Peak level 90.0 %
    Track quality 100.0 %
    Copy CRC FC72F2FF
    Copy OK

    Track 2

    Filename E:\+DVD Projects\+UPLOAD\2CD_The Best Songs of Ukrainian Variety of XX Century\Vol.1\02. Надія Пащенко, Ніна Злобіна - Зелен клен.wav

    Pre-gap length 0:00:02.49

    Peak level 98.0 %
    Track quality 99.9 %
    Copy CRC 6D74E71B
    Copy OK

    Track 3

    Filename E:\+DVD Projects\+UPLOAD\2CD_The Best Songs of Ukrainian Variety of XX Century\Vol.1\03. Олександр Скачко - Очі волошкові.wav

    Pre-gap length 0:00:02.49

    Peak level 98.0 %
    Track quality 100.0 %
    Copy CRC 7DF840A0
    Copy OK

    Track 4

    Filename E:\+DVD Projects\+UPLOAD\2CD_The Best Songs of Ukrainian Variety of XX Century\Vol.1\04. Жіночий вок. квартет - Не топчіть конвалій.wav

    Pre-gap length 0:00:02.49

    Peak level 98.0 %
    Track quality 100.0 %
    Copy CRC 8DAB4123
    Copy OK

    Track 5

    Filename E:\+DVD Projects\+UPLOAD\2CD_The Best Songs of Ukrainian Variety of XX Century\Vol.1\05. Андрій Кондратюк - Марічка.wav

    Pre-gap length 0:00:02.49

    Peak level 98.0 %
    Track quality 100.0 %
    Copy CRC 89347758
    Copy OK

    Track 6

    Filename E:\+DVD Projects\+UPLOAD\2CD_The Best Songs of Ukrainian Variety of XX Century\Vol.1\06. Алла Кудлай - Гуцулка Ксеня.wav

    Pre-gap length 0:00:02.49

    Peak level 98.0 %
    Track quality 99.9 %
    Copy CRC 7AD88209
    Copy OK

    Track 7

    Filename E:\+DVD Projects\+UPLOAD\2CD_The Best Songs of Ukrainian Variety of XX Century\Vol.1\07. Олександр Таранець - Прилетіла ластівка.wav

    Pre-gap length 0:00:02.49

    Peak level 98.0 %
    Track quality 100.0 %
    Copy CRC 6C949E44
    Copy OK

    Track 8

    Filename E:\+DVD Projects\+UPLOAD\2CD_The Best Songs of Ukrainian Variety of XX Century\Vol.1\08. Лідія Відаш - Я піду в далекі гори.wav

    Pre-gap length 0:00:02.49

    Peak level 98.0 %
    Track quality 99.9 %
    Copy CRC EBB17F76
    Copy OK

    Track 9

    Filename E:\+DVD Projects\+UPLOAD\2CD_The Best Songs of Ukrainian Variety of XX Century\Vol.1\09. ВІА «Смерічка» - Гай, зелений гай.wav

    Pre-gap length 0:00:02.49

    Peak level 98.0 %
    Track quality 100.0 %
    Copy CRC 286E744D
    Copy OK

    Track 10

    Filename E:\+DVD Projects\+UPLOAD\2CD_The Best Songs of Ukrainian Variety of XX Century\Vol.1\10. Тріо «Маренич» - Тиша навкруги.wav

    Pre-gap length 0:00:02.49

    Peak level 98.0 %
    Track quality 100.0 %
    Copy CRC 6890DE55
    Copy OK

    Track 11

    Filename E:\+DVD Projects\+UPLOAD\2CD_The Best Songs of Ukrainian Variety of XX Century\Vol.1\11. Дмитро Гнатюк - Черемшина.wav

    Pre-gap length 0:00:02.49

    Peak level 97.9 %
    Track quality 100.0 %
    Copy CRC 95593975
    Copy OK

    Track 12

    Filename E:\+DVD Projects\+UPLOAD\2CD_The Best Songs of Ukrainian Variety of XX Century\Vol.1\12. Дует «Писанка» - Балада про дві скрипки.wav

    Pre-gap length 0:00:02.49

    Peak level 77.8 %
    Track quality 100.0 %
    Copy CRC ED5530ED
    Copy OK

    Track 13

    Filename E:\+DVD Projects\+UPLOAD\2CD_The Best Songs of Ukrainian Variety of XX Century\Vol.1\13. Микола Кондратюк - Цвітуть осінні тихі небеса.wav

    Pre-gap length 0:00:02.49

    Peak level 98.0 %
    Track quality 100.0 %
    Copy CRC 5F15174E
    Copy OK

    Track 14

    Filename E:\+DVD Projects\+UPLOAD\2CD_The Best Songs of Ukrainian Variety of XX Century\Vol.1\14. Костянтин Силантьєв - Верховино, мати моя.wav

    Pre-gap length 0:00:02.49

    Peak level 98.0 %
    Track quality 100.0 %
    Copy CRC A083F09C
    Copy OK

    Track 15

    Filename E:\+DVD Projects\+UPLOAD\2CD_The Best Songs of Ukrainian Variety of XX Century\Vol.1\15. Людмила Маковецька, Олександр Трофимчук - Київський вальс.wav

    Pre-gap length 0:00:02.49

    Peak level 77.8 %
    Track quality 100.0 %
    Copy CRC 5A5C3174
    Copy OK

    Track 16

    Filename E:\+DVD Projects\+UPLOAD\2CD_The Best Songs of Ukrainian Variety of XX Century\Vol.1\16. Л. Чайковська - Намалюй мені ніч.wav

    Peak level 98.0 %
    Track quality 100.0 %
    Copy CRC 429E99A3
    Copy OK

    Track 17

    Filename E:\+DVD Projects\+UPLOAD\2CD_The Best Songs of Ukrainian Variety of XX Century\Vol.1\17. Назарій Яремчук - Запроси мене у сни.wav

    Peak level 77.8 %
    Track quality 100.0 %
    Copy CRC AD4CD731
    Copy OK

    Track 18

    Filename E:\+DVD Projects\+UPLOAD\2CD_The Best Songs of Ukrainian Variety of XX Century\Vol.1\18. Лідія Сандулеса, Іво Бобул - Берег любові.wav

    Peak level 98.0 %
    Track quality 100.0 %
    Copy CRC A4AB593F
    Copy OK

    Track 19

    Filename E:\+DVD Projects\+UPLOAD\2CD_The Best Songs of Ukrainian Variety of XX Century\Vol.1\19. Софія Ротару - Тече вода.wav

    Peak level 98.0 %
    Track quality 100.0 %
    Copy CRC 33EE256C
    Copy OK

    Track 20

    Filename E:\+DVD Projects\+UPLOAD\2CD_The Best Songs of Ukrainian Variety of XX Century\Vol.1\20. ВІА «Кобза» - Ти і я — одна сім’я.wav

    Peak level 98.0 %
    Track quality 100.0 %
    Copy CRC 1D004162
    Copy OK

    Track 21

    Filename E:\+DVD Projects\+UPLOAD\2CD_The Best Songs of Ukrainian Variety of XX Century\Vol.1\21. Тарас Петриненко - Україна.wav

    Peak level 98.0 %
    Track quality 100.0 %
    Copy CRC AE562C30
    Copy OK

    No errors occurred

    End of status report
    fooCDtect
    fooCDtect - foobar2000 + auCDtect, baralgin.

    auCDtect: CD records authenticity detector, version 0.8.2
    Copyright (c) 2004 Oleg Berngardt. All rights reserved.
    Copyright (c) 2004 Alexander Djourik. All rights reserved.

    mode: 0

    =======================================================
    Track: 01 - Червона рута
    Quality: CDDA, 99%
    =======================================================
    Track: 02 - Зелен клен
    Quality: CDDA, 100%
    =======================================================
    Track: 03 - Очі волошкові
    Quality: CDDA, 100%
    =======================================================
    Track: 04 - Не топчіть конвалій
    Quality: CDDA, 100%
    =======================================================
    Track: 05 - Марічка
    Quality: CDDA, 100%
    =======================================================
    Track: 06 - Гуцулка Ксеня
    Quality: CDDA, 100%
    =======================================================
    Track: 07 - Прилетіла ластівка
    Quality: CDDA, 49%
    =======================================================
    Track: 08 - Я піду в далекі гори
    Quality: CDDA, 100%
    =======================================================
    Track: 09 - Гай, зелений гай
    Quality: CDDA, 100%
    =======================================================
    Track: 10 - Тиша навкруги
    Quality: CDDA, 100%
    =======================================================
    Track: 11 - Черемшина
    Quality: MPEG, 91%
    =======================================================
    Track: 12 - Балада про дві скрипки
    Quality: CDDA, 100%
    =======================================================
    Track: 13 - Цвітуть осінні тихі небеса
    Quality: CDDA, 100%
    =======================================================
    Track: 14 - Верховино, мати моя
    Quality: CDDA, 100%
    =======================================================
    Track: 15 - Київський вальс
    Quality: CDDA, 100%
    =======================================================
    Track: 16 - Намалюй мені ніч
    Quality: CDDA, 100%
    =======================================================
    Track: 17 - Запроси мене у сни
    Quality: CDDA, 100%
    =======================================================
    Track: 18 - Берег любові
    Quality: CDDA, 99%
    =======================================================
    Track: 19 - Тече вода
    Quality: CDDA, 100%
    =======================================================
    Track: 20 - Ти і я — одна сім’я
    Quality: CDDA, 87%
    =======================================================
    Track: 21 - Україна
    Quality: CDDA, 99%
    =======================================================
    2006 vol.2



    1. Білі ночі (Е. Яроцька)
    музика: В.Полійчук
    слова: І.Шамо, В.Гомоляка
    2. Пісня про рушник (О. Таранець)
    музика: П.Майборода
    слова: А.Малишко
    3. Пісня з полонини (Дмитро Гнатюк)
    музика: С.Сабадаш
    слова: О.Пономаренко
    4. Києве мій (Ю. Гуляєв)
    музика: І.Шамо
    слова: Д.Луценко
    5. Два кольори (Дмитро Гнатюк)
    музика: О.Білаш
    слова: Д.Павличко
    6. На долині туман (Микола Кондратюк)
    музика: Б.Буєвський
    слова: В.Діденко
    7. Кохана (Костянтин Огнєвий)
    музика: І.Поклад
    слова: І.Барах
    8. Троянди на пероні (Ю. Пашковська)
    музика: А.Горчинський
    слова: О.Богачук
    9. Летять, ніби чайки (Дмитро Гнатюк)
    музика: Ю.Рожавська
    слова: Л.Рева
    10. Чорнобривці (Костянтин Огнєвий)
    музика: В.Верменич
    слова: М.Сингаївський
    11. Не ти, мій коханий (В. Купріна)
    музика: А.Горчинський
    слова: В. Науменко
    12. Казка гір (Л. Відаш)
    музика: В.Івасюк
    слова: В.Івасюк
    13. Дикі гуси (Ніна Матвієнко)
    музика: І.Поклад
    слова: Ю.Рибчинський
    14. Чарівна скрипка (ВІА "Чайка")
    музика: І.Поклад
    слова: Ю.Рибчинський
    15. Осіннє золото (О. Таранець)
    музика: І.Шамо
    слова: Д.Луценка
    16. Балада про скрипки (Софія Ротару)
    музика: В.Івасюк, В.Марсюк
    слова: В.Івасюк, В.Марсюк
    17. А ми удвох (Народний ансамбль української пісні "Калина")
    музика: О. Зуєв
    слова: В.Кудрявцев
    18. Водограй (Вокально-інструментальний ансамбль Смерічка)
    музика: В.Івасюк
    слова: В.Івасюк
    19. Пісня буде поміж нас (Вокально-інструментальний ансамбль Смерічка)
    музика: В.Івасюк
    слова: В.Івасюк
    20. Танго без відповіді (Софія Ротару)
    музика: В.Івасюк
    слова: Р.Братунь
    21. Скрипка грає (ВІА "Світязь")
    музика: І.Поклад
    слова: Ю.Рибчинський
    22. Пісня про пісню (Тарас Петриненко)
    музика: Т.Петриненко
    слова: Т.Петриненко

    Тривалість: 01:16:46
    log
    Exact Audio Copy V0.99 prebeta 5 from 4. May 2009

    EAC extraction logfile from 14. July 2009, 15:44

    Various / The Best Songs of Ukrainian Variety of XX Century - Vol. 2

    Used drive : PLEXTOR CD-R PX-W1210S Adapter: 6 ID: 4

    Read mode : Secure
    Utilize accurate stream : Yes
    Defeat audio cache : Yes
    Make use of C2 pointers : No

    Read offset correction : 98
    Overread into Lead-In and Lead-Out : No
    Fill up missing offset samples with silence : Yes
    Delete leading and trailing silent blocks : No
    Null samples used in CRC calculations : Yes
    Used interface : Installed external ASPI interface
    Gap handling : Appended to previous track

    Used output format : User Defined Encoder
    Selected bitrate : 1024 kBit/s
    Quality : High
    Add ID3 tag : No
    Command line compressor : C:\Program Files\Exact Audio Copy\Flac\flac.exe
    Additional command line options : -8 -V -T "ARTIST=%a" -T "TITLE=%t" -T "ALBUM=%g" -T "DATE=%y" -T "TRACKNUMBER=%n" -T "GENRE=%m" -T "COMMENT=EAC FLAC -8" %s

    TOC of the extracted CD

    Track | Start | Length | Start sector | End sector
    ---------------------------------------------------------
    1 | 0:00.00 | 3:23.60 | 0 | 15284
    2 | 3:23.60 | 4:10.48 | 15285 | 34082
    3 | 7:34.33 | 3:43.11 | 34083 | 50818
    4 | 11:17.44 | 4:12.41 | 50819 | 69759
    5 | 15:30.10 | 4:16.48 | 69760 | 89007
    6 | 19:46.58 | 2:01.31 | 89008 | 98113
    7 | 21:48.14 | 2:30.43 | 98114 | 109406
    8 | 24:18.57 | 2:30.74 | 109407 | 120730
    9 | 26:49.56 | 3:35.52 | 120731 | 136907
    10 | 30:25.33 | 3:43.45 | 136908 | 153677
    11 | 34:09.03 | 2:58.15 | 153678 | 167042
    12 | 37:07.18 | 3:00.56 | 167043 | 180598
    13 | 40:07.74 | 3:55.02 | 180599 | 198225
    14 | 44:03.01 | 3:18.28 | 198226 | 213103
    15 | 47:21.29 | 3:46.50 | 213104 | 230103
    16 | 51:08.04 | 5:39.04 | 230104 | 255532
    17 | 56:47.08 | 2:47.26 | 255533 | 268083
    18 | 59:34.34 | 3:26.52 | 268084 | 283585
    19 | 63:01.11 | 3:41.65 | 283586 | 300225
    20 | 66:43.01 | 2:40.57 | 300226 | 312282
    21 | 69:23.58 | 3:55.18 | 312283 | 329925
    22 | 73:19.01 | 3:26.64 | 329926 | 345439

    Track 1

    Filename E:\_FOR CONVERTED\The Best Songs of Ukrainian Variety of XX Century\Vol.2\01. Елеонора Яроцька - Білі ночі (1954).wav

    Pre-gap length 0:00:02.00

    Peak level 98.0 %
    Track quality 100.0 %
    Copy CRC AC07691B
    Copy OK

    Track 2

    Filename E:\_FOR CONVERTED\The Best Songs of Ukrainian Variety of XX Century\Vol.2\02. Олександр Таранець - Пісня про рушник (1959).wav

    Pre-gap length 0:00:03.00

    Peak level 65.4 %
    Track quality 100.0 %
    Copy CRC F971A315
    Copy OK

    Track 3

    Filename E:\_FOR CONVERTED\The Best Songs of Ukrainian Variety of XX Century\Vol.2\03. Дмитро Гнатюк - Пісня з полонини (1962).wav

    Pre-gap length 0:00:03.00

    Peak level 98.0 %
    Track quality 99.9 %
    Copy CRC ED9DBC22
    Copy OK

    Track 4

    Filename E:\_FOR CONVERTED\The Best Songs of Ukrainian Variety of XX Century\Vol.2\04. Юрій Гуляєв - Києве мій (1962).wav

    Pre-gap length 0:00:03.00

    Peak level 98.0 %
    Track quality 100.0 %
    Copy CRC 7C0242C7
    Copy OK

    Track 5

    Filename E:\_FOR CONVERTED\The Best Songs of Ukrainian Variety of XX Century\Vol.2\05. Дмитро Гнатюк - Два кольори (1966).wav

    Pre-gap length 0:00:03.00

    Peak level 98.0 %
    Track quality 100.0 %
    Copy CRC C6EB5477
    Copy OK

    Track 6

    Filename E:\_FOR CONVERTED\The Best Songs of Ukrainian Variety of XX Century\Vol.2\06. Микола Кондратюк - На долині туман (1966).wav

    Pre-gap length 0:00:03.00

    Peak level 98.0 %
    Track quality 100.0 %
    Copy CRC C7182657
    Copy OK

    Track 7

    Filename E:\_FOR CONVERTED\The Best Songs of Ukrainian Variety of XX Century\Vol.2\07. Костянтин Огнєвой - Кохана (1967).wav

    Pre-gap length 0:00:03.00

    Peak level 98.0 %
    Track quality 100.0 %
    Copy CRC 4911F143
    Copy OK

    Track 8

    Filename E:\_FOR CONVERTED\The Best Songs of Ukrainian Variety of XX Century\Vol.2\08. Юлія Пашковська - Троянди на пероні (1967).wav

    Pre-gap length 0:00:03.00

    Peak level 70.7 %
    Track quality 100.0 %
    Copy CRC 9A12F7CE
    Copy OK

    Track 9

    Filename E:\_FOR CONVERTED\The Best Songs of Ukrainian Variety of XX Century\Vol.2\09. Дмитро Гнатюк - Летять, ніби чайки (1967).wav

    Pre-gap length 0:00:03.00

    Peak level 98.1 %
    Track quality 100.0 %
    Copy CRC EF75B633
    Copy OK

    Track 10

    Filename E:\_FOR CONVERTED\The Best Songs of Ukrainian Variety of XX Century\Vol.2\10. Костянтин Огнєвой - Чорнобривці (1967).wav

    Pre-gap length 0:00:03.00

    Peak level 92.0 %
    Track quality 100.0 %
    Copy CRC 732AFFB9
    Copy OK

    Track 11

    Filename E:\_FOR CONVERTED\The Best Songs of Ukrainian Variety of XX Century\Vol.2\11. Валентина Купріна - Не ти, мій коханий (1969).wav

    Pre-gap length 0:00:03.00

    Peak level 98.0 %
    Track quality 100.0 %
    Copy CRC 64CC54D7
    Copy OK

    Track 12

    Filename E:\_FOR CONVERTED\The Best Songs of Ukrainian Variety of XX Century\Vol.2\12. Лідія Відаш - Казка гір (1972).wav

    Pre-gap length 0:00:03.00

    Peak level 97.8 %
    Track quality 100.0 %
    Copy CRC 214430F5
    Copy OK

    Track 13

    Filename E:\_FOR CONVERTED\The Best Songs of Ukrainian Variety of XX Century\Vol.2\13. Ніна Матвієнко - Дикі гуси (1972).wav

    Pre-gap length 0:00:03.00

    Peak level 98.0 %
    Track quality 100.0 %
    Copy CRC 24A7B24C
    Copy OK

    Track 14

    Filename E:\_FOR CONVERTED\The Best Songs of Ukrainian Variety of XX Century\Vol.2\14. ВІА 'Чайка' - Чарівна скрипка (1973).wav

    Pre-gap length 0:00:03.00

    Peak level 98.1 %
    Track quality 100.0 %
    Copy CRC EE50D0DB
    Copy OK

    Track 15

    Filename E:\_FOR CONVERTED\The Best Songs of Ukrainian Variety of XX Century\Vol.2\15. Олександр Таранець - Осіннє золото (1973).wav

    Pre-gap length 0:00:03.00

    Peak level 98.0 %
    Track quality 100.0 %
    Copy CRC F6110231
    Copy OK

    Track 16

    Filename E:\_FOR CONVERTED\The Best Songs of Ukrainian Variety of XX Century\Vol.2\16. Софія Ротару - Балада про скрипки (1974).wav

    Pre-gap length 0:00:03.00

    Peak level 98.0 %
    Track quality 99.9 %
    Copy CRC 07EB56BE
    Copy OK

    Track 17

    Filename E:\_FOR CONVERTED\The Best Songs of Ukrainian Variety of XX Century\Vol.2\17. ВІА 'Калина' - А ми удвох (1975).wav

    Pre-gap length 0:00:03.00

    Peak level 69.2 %
    Track quality 99.9 %
    Copy CRC DB97EC22
    Copy OK

    Track 18

    Filename E:\_FOR CONVERTED\The Best Songs of Ukrainian Variety of XX Century\Vol.2\18. Надія Пащенко, Назарій Яремчук - Водограй (1976).wav

    Pre-gap length 0:00:03.00

    Peak level 98.0 %
    Track quality 100.0 %
    Copy CRC 03FC78CF
    Copy OK

    Track 19

    Filename E:\_FOR CONVERTED\The Best Songs of Ukrainian Variety of XX Century\Vol.2\19. Василь Зінкевич, Назарій Яремчук - Пісня буде поміж нас (1976).wav

    Pre-gap length 0:00:03.00

    Peak level 98.0 %
    Track quality 100.0 %
    Copy CRC BD4B648C
    Copy OK

    Track 20

    Filename E:\_FOR CONVERTED\The Best Songs of Ukrainian Variety of XX Century\Vol.2\20. Софія Ротару - Танго без відповіді (1979).wav

    Pre-gap length 0:00:03.00

    Peak level 69.3 %
    Track quality 100.0 %
    Copy CRC 3314D04D
    Copy OK

    Track 21

    Filename E:\_FOR CONVERTED\The Best Songs of Ukrainian Variety of XX Century\Vol.2\21. Василь Зінкевич - Скрипка грає (1982).wav

    Pre-gap length 0:00:03.00

    Peak level 87.3 %
    Track quality 100.0 %
    Copy CRC FED3B0DD
    Copy OK

    Track 22

    Filename E:\_FOR CONVERTED\The Best Songs of Ukrainian Variety of XX Century\Vol.2\22.Тарас Петриненко - Пісня про пісню (1990).wav

    Pre-gap length 0:00:03.00

    Peak level 98.0 %
    Track quality 100.0 %
    Copy CRC EB51F196
    Copy OK

    No errors occurred

    End of status report
    fooCDtect
    fooCDtect - foobar2000 + auCDtect, baralgin.

    auCDtect: CD records authenticity detector, version 0.8.2
    Copyright (c) 2004 Oleg Berngardt. All rights reserved.
    Copyright (c) 2004 Alexander Djourik. All rights reserved.

    mode: 0

    =======================================================
    Track: 02 - Пісня про рушник (1959)
    Quality: CDDA, 100%
    =======================================================
    Track: 01 - Білі ночі (1954)
    Quality: CDDA, 43%
    =======================================================
    Track: 03 - Пісня з полонини (1962)
    Quality: CDDA, 100%
    =======================================================
    Track: 04 - Києве мій (1962)
    Quality: CDDA, 100%
    =======================================================
    Track: 05 - Два кольори (1966)
    Quality: CDDA, 100%
    =======================================================
    Track: 06 - На долині туман (1966)
    Quality: CDDA, 100%
    =======================================================
    Track: 07 - Кохана (1967)
    Quality: CDDA, 100%
    =======================================================
    Track: 08 - Троянди на пероні (1967)
    Quality: CDDA, 100%
    =======================================================
    Track: 09 - Летять, ніби чайки (1967)
    Quality: CDDA, 100%
    =======================================================
    Track: 10 - Чорнобривці (1967)
    Quality: CDDA, 100%
    =======================================================
    Track: 11 - Не ти, мій коханий (1969)
    Quality: CDDA, 100%
    =======================================================
    Track: 12 - Казка гір (1972)
    Quality: CDDA, 100%
    =======================================================
    Track: 13 - Дикі гуси (1972)
    Quality: CDDA, 76%
    =======================================================
    Track: 14 - Чарівна скрипка (1973)
    Quality: CDDA, 76%
    =======================================================
    Track: 15 - Осіннє золото (1973)
    Quality: CDDA, 54%
    =======================================================
    Track: 16 - Балада про скрипки (1974)
    Quality: CDDA, 100%
    =======================================================
    Track: 17 - А ми удвох (1975)
    Quality: CDDA, 100%
    =======================================================
    Track: 18 - Водограй (1976)
    Quality: CDDA, 99%
    =======================================================
    Track: 19 - Пісня буде поміж нас (1976)
    Quality: CDDA, 99%
    =======================================================
    Track: 20 - Танго без відповіді (1979)
    Quality: CDDA, 100%
    =======================================================
    Track: 21 - Скрипка грає (1982)
    Quality: MPEG, 80%
    =======================================================
    Track: 22 - Пісня про пісню (1990)
    Quality: CDDA, 100%
    =======================================================

Тривалість: 02:35:26
Мова: українська
Аудіо-кодек: FLAC
Бітрейт: 425-873 кб/с
Джерело: інший трекер (поправив назви, заповнив теги), в роздачі присутні скани
Додаткова інформація:
Немає сенсу багато розповідати про цей диск – є сенс скоріше його послухати. Особливо – якщо Ви вже точно знаєте, що Вам подобається українська естрада 60-80-х років 20-го століття. Якщо ж це терра інкогніта – тим більше варто скоріше слухати диск. За настроєм представлена тут музика чимось нагадує початок американського джазу, 20-40-і роки приблизно. Наголошую – за настроєм. Власне, ці пісні, майже всі без винятку, містять в собі особливу, зворушливу тайну наївно-щирого звучання. Нинішня естрада такої загадки вже не має, і, мабуть, не матиме. Бо тепер це і шоу, і бізнес у значно більшій ступені, ніж раніше. А раніше – важко повірити, але таке було життя. Ззовні – просте, прозоре, чесне. І, як не дивно, зсередини воно теж часто було таким. Така і музика. Ні, не еталон, звісно. Але – відбиток, настрій, документальне свідчення того, чого тепер і не зустрінеш вже.

Здебільшого я не дуже полюбляю всілякі збірки – практично незалежно від того, якій музиці їх присвячено. Просто тому, що часто люблю поринати якомога глибше – а тому намагаюся слухати цілі альбоми, а не уривки. Знаю, це моя особиста справа. Але кажу тут про це тільки тому, що бувають винятки – і сьогоднішня платівка є одним з них. Укладачам цієї збірки вже вдруге, мені здається, вдалося зробити майже неможливе – намалювати цілісну картину, спираючись на не просто окремі, а самодостатні фрагменти. Кожна з представлених тут пісень вже сама по собі може бути яскравим уособленням цілої епохи. Кожен голос, кожна мелодія, кожен текст – перевірений часом скарб української естради. Тому і трохи дивно, і приємно, що пісні на платівці не конкурують між собою, а доповнюють одна іншу, взаємно підкреслюють переваги. А в результаті – не виникає відчуття, ніби слухаєш збірку. Ні. В даному випадку – слухаєш цілісний, гармонійний альбом. Слухаєш єдиний настрій, час, простір... Власне, саме існування винятків і виправдовує, хоча б частково, існування більшості правил...


Якщо Ви справді бажаєте підтримати українське - після прослуховування, якщо музика вам сподобалась,
придбайте ліцензійний диск.
Підтримаймо вітчизняних виконавців!


Срібний реліз (на рейтинг впливає 50% завантаженого)
 Трекер:    Зареєстрований   

Завантажити / скачати українську музику



відео для новачків



 Зареєстрований:   2011-04-26 18:43
 Розмір:   740 MB 
 Оцінка музики:   8.7/10 (Голосів: 44)
   
iwan wan 
VIP


З нами з: 01.10.09
Востаннє: 08.12.16
Повідомлень: 1762

2011-04-26 19:32  
А в мр3? Є чи буде?
ssTAss 
Модератор музики


З нами з: 05.07.08
Востаннє: 08.12.16
Повідомлень: 10947

2011-04-26 21:03  
iwan wan написано:
А в мр3? Є чи буде?

я не планую
маєте бажання - робіть

dobrodid 
Новенький


З нами з: 31.10.09
Востаннє: 09.04.12
Повідомлень: 6

2011-06-05 21:25  
Це дійсно скарб. І еталон! Дай Вам Боже здоровя!
Lucas Pohl 
Новенький


З нами з: 10.12.11
Востаннє: 07.10.16
Повідомлень: 8

2014-12-29 00:10  
Велике спасибі, хлопці!. Торрент старий, але він працює добре!!. З Новим Роком!.
Ваш часовий пояс: GMT + 2 Години

Нова тема   Відповісти