Завантажити та скачати торренти українською


VA - Переможці Міжнародних конкурсів молодих виконавців української естрадної пісні ім. Володимира Івасюка [FLAC] | Pop

Нові коментарі

Нова тема   Відповісти
Автор Повідомлення
civ 
VIP


З нами з: 16.02.11
Востаннє: 10.12.16
Повідомлень: 429

2011-04-19 21:51  
VA - Переможці Міжнародних конкурсів молодих виконавців української естрадної пісні ім. Володимира Івасюка [FLAC] | Pop


Стиль: Pop
Країна: Україна
Видавець: Телеканал СТБ
Виконавці: Різні

Пісні:
    01. Тільки раз цвіте любов (Олександр Пономарьов)
    02. Два перстені (Ліна Скачко)
    03. Народження дня (Юрко Юрченко)
    04. Жовтий лист (Тетяна Порчик)
    05. Балада про мальви (Марина Одольська)
    06. Вернись із спогадів (Алла Кобилянська)
    07. Відлуння твоїх кроків (Таїсія Повалій)
    08. Далина (Людмила Москаль)
    09. Пісня буде поміж нас (Анжеліка Щербакова)
    10. Запроси мене у сни (Павло Мрежук)
    11. У долі своя весна (Ганна Зотьєва)
    12. Запроси до танцю (Світлана Зайченко)


Тривалість: 00:51:46
Мова: українська
Аудіо-кодек: FLAC
Бітрейт: 794 кб/с
Джерело: Власний ріп
Тип ріпу: image+CUE
Особливості: обкладинки та cue присутні у роздачі та вбудовані у flac, заповнені теги композитор, поет та лірика
EAC log

Exact Audio Copy V1.0 beta 1 from 15. November 2010

EAC extraction logfile from 11. March 2011, 8:46

Various / Переможці конкурсів ім. В.Івасюка

Used drive : Optiarc DVD RW AD-7200A Adapter: 0 ID: 0

Read mode : Secure
Utilize accurate stream : Yes
Defeat audio cache : Yes
Make use of C2 pointers : No

Read offset correction : 0
Overread into Lead-In and Lead-Out : No
Fill up missing offset samples with silence : Yes
Delete leading and trailing silent blocks : No
Null samples used in CRC calculations : No
Used interface : Native Win32 interface for Win NT & 2000

Used output format : Internal WAV Routines
Sample format : 44.100 Hz; 16 Bit; Stereo

TOC of the extracted CD

Track | Start | Length | Start sector | End sector
---------------------------------------------------------
1 | 0:00.00 | 3:57.14 | 0 | 17788
2 | 3:57.14 | 3:51.02 | 17789 | 35115
3 | 7:48.16 | 3:59.37 | 35116 | 53077
4 | 11:47.53 | 4:03.14 | 53078 | 71316
5 | 15:50.67 | 5:21.01 | 71317 | 95392
6 | 21:11.68 | 3:41.54 | 95393 | 112021
7 | 24:53.47 | 3:18.66 | 112022 | 126937
8 | 28:12.38 | 6:42.48 | 126938 | 157135
9 | 34:55.11 | 3:45.34 | 157136 | 174044
10 | 38:40.45 | 4:23.03 | 174045 | 193772
11 | 43:03.48 | 4:47.05 | 193773 | 215302
12 | 47:50.53 | 3:55.39 | 215303 | 232966

Range status and errors

Selected range

Filename D:\Music\Various - Переможці конкурсів ім. В.Івасюка.wav

Peak level 100.0 %
Extraction speed 0.3 X
Range quality 100.0 %
Copy CRC A04F390B
Copy OK

No errors occurred

End of status report
fooCDtect

fooCDtect - foobar2000 + auCDtect, baralgin.

auCDtect: CD records authenticity detector, version 0.8.2
Copyright (c) 2004 Oleg Berngardt. All rights reserved.
Copyright (c) 2004 Alexander Djourik. All rights reserved.

mode: 0

=======================================================
Track: 01 - Олександр Пономарьов - Тільки раз цвіте любов
Quality: CDDA, 100%
=======================================================
Track: 02 - Ліна Скачко - Два перстені
Quality: CDDA, 87%
=======================================================
Track: 03 - Юрко Юрченко - Народження дня
Quality: CDDA, 100%
=======================================================
Track: 04 - Тетяна Порчик - Жовтий лист
Quality: MPEG, 95%
=======================================================
Track: 05 - Марина Одольська - Балада про мальви
Quality: unknown
=======================================================
Track: 06 - Алла Кобилянська - Вернись із спогадів
Quality: MPEG, 95%
=======================================================
Track: 07 - Таїсія Повалій - Відлуння твоїх кроків
Quality: CDDA, 100%
=======================================================
Track: 08 - Людмила Москаль - Далина
Quality: MPEG, 95%
=======================================================
Track: 09 - Анжеліка Щербакова - Пісня буде поміж нас
Quality: CDDA, 100%
=======================================================
Track: 10 - Павло Мрежук - Запроси мене у сни
Quality: MPEG, 95%
=======================================================
Track: 11 - Ганна Зотьєва - У долі своя весна
Quality: CDDA, 100%
=======================================================
Track: 12 - Світлана Зайченко - Запроси до танцю
Quality: MPEG, 95%
=======================================================
Додаткова інформація:
Цей диск був випущений телеканалом СТБ. Диск не призначений для продажу і вийшов обмеженим тиражем.
На самому дискові немає інформації про рік видання, тому я його не зазначив. Але то приблизно 2000 рік.
Нажаль, маємо невтішні дані аудіочекера у половини треків. А якість трека №5 взагалі залишилася невизначеною.
Мабуть, записали, що мали... Але музика грає і роздачу я роблю.


Якщо Ви справді бажаєте підтримати українське - після прослуховування, якщо музика вам сподобалась, придбайте ліцензійний диск. Підтримаймо вітчизняних виконавців!


Срібний реліз (на рейтинг впливає 50% завантаженого)
 Трекер:    Зареєстрований   

Завантажити / скачати українську музику



відео для новачків



 Зареєстрований:   2011-04-19 21:51
 Розмір:   297 MB 
 Оцінка музики:   10/10 (Голосів: 8)
   
Форкуш 
VIP


З нами з: 03.02.10
Востаннє: 10.12.16
Повідомлень: 1547

2016-01-08 12:03  
можете мп3 Жовтого листа в приват скинути?
Ваш часовий пояс: GMT + 2 Години

Нова тема   Відповісти