Завантажити та скачати торренти українською


VA - Пам’яті Володимира Івасюка (2004) [FLAC] | Pop

Нові коментарі

Нова тема   Відповісти
Автор Повідомлення
civ 
VIP


З нами з: 16.02.11
Востаннє: 04.12.16
Повідомлень: 429

2011-04-16 08:43  
VA - Пам’яті Володимира Івасюка (2004) [FLAC] | Pop



Стиль: Pop
Країна: Україна
Видавець: Ліда
Виконавці:
Мар’яна Коцюк, Тетяна Чирик, Ерік Литвин, Андрій Грех, М.Сиволос
Пісні:
    01. Балада про дві скрипки (Мар’яна Коцюк)
    02. Червона рута (Тетяна Чирик)
    03. Тільки раз цвіте любов (Тетяна Чирик)
    04. Я голову схиляю (Ерік Литвин)
    05. Рідний край (Тетяна Чирик)
    06. Ти (Ерік Литвин)
    07. Стожари (Андрій Грех)
    08. Водограй (М.Сиволос)
    09. Я піду в далекі гори (Андрій Грех)
    10. Жовтий лист (Ерік Литвин)
    11. Нестримна течія (Мар’яна Коцюк)
    12. Я — твоє крило (Мар’яна Коцюк)
    13. Пісня буде поміж нас (М.Сиволос)
    14. Вернись із спогадів (Тетяна Чирик)
    15. Водограй (Караоке)
    16. Балада про дві скрипки (Караоке)
    17. Червона рута (Караоке)
    18. Тільки раз цвіте любов (Караоке)
    19. Стожари (Караоке)

Тривалість: 01:18:18
Мова: українська (1-14), караоке (15-19)
Аудіо-кодек: FLAC
Бітрейт: 945 кб/с
Джерело: Власний ріп
Тип ріпу: image+CUE
Особливості релізу: cue, log та обкладинки є у роздачі та вбудовані у flac, заповнені теги композитор, поет та лірика

Додаткова інформація:
Збірка студії «Фенікс», м. Дрогобич.
Мені ці виконавці абсолютно не знайомі. Я їхні імена вперше побачив на цьому диску. Сам диск купив разом з Остапом Стахівим у 2007 році на майдані.
Диск також не містить жодної інформації про рік видання, але на обкладинці вказаний рік запису — 2004. Тож вважатимемо його і роком видання.
Також видавець не потурбувався про ідентифікацію виконавців - на обкладинці вони подані зі скороченими іменами. Та завдяки Інтернет вдалося ідентифікувати всіх, крім співачки М.Сиволос. Може, хтось знає, як її звуть?
12 із 19 треків аудіочекер визначив як апконверт. Але, як і в ситуації з альбомом Стахіва, це скоріше поганий запис у самій студії.
Також, здається мені, що це — одни з перших дисків виробництва «Ліди». Це також могло накласти свій відбиток на якість видання.

Щодо самого альбому, то очікувалося, що всі пісні на диску будуть Володимира Івасюка, або присвячені йому. Це майже так. Трек №4 «Я голову схиляю» — це присвячені Івасюкові пісня, треки №№5-7,19 — це щось додаткове, все інше — пісні Івасюка. Також, не вдалося ідентифікувати трек №5 «Рідний край». Інтернет не знає такої пісні — я записав слова на слух. Відповідно, її автори залишилися не відомі.
EAC log

Exact Audio Copy V1.0 beta 1 from 15. November 2010

EAC extraction logfile from 14. April 2011, 8:43

Various / Пам’яті Володимира Івасюка

Used drive : Optiarc DVD RW AD-7200A Adapter: 0 ID: 0

Read mode : Secure
Utilize accurate stream : Yes
Defeat audio cache : Yes
Make use of C2 pointers : No

Read offset correction : 0
Overread into Lead-In and Lead-Out : No
Fill up missing offset samples with silence : Yes
Delete leading and trailing silent blocks : No
Null samples used in CRC calculations : No
Used interface : Native Win32 interface for Win NT & 2000

Used output format : Internal WAV Routines
Sample format : 44.100 Hz; 16 Bit; Stereo

TOC of the extracted CD

Track | Start | Length | Start sector | End sector
---------------------------------------------------------
1 | 0:00.00 | 4:26.65 | 0 | 20014
2 | 4:26.65 | 4:02.69 | 20015 | 38233
3 | 8:29.59 | 3:55.01 | 38234 | 55859
4 | 12:24.60 | 4:58.32 | 55860 | 78241
5 | 17:23.17 | 4:57.43 | 78242 | 100559
6 | 22:20.60 | 3:10.41 | 100560 | 114850
7 | 25:31.26 | 3:43.14 | 114851 | 131589
8 | 29:14.40 | 3:06.71 | 131590 | 145610
9 | 32:21.36 | 4:37.23 | 145611 | 166408
10 | 36:58.59 | 5:17.31 | 166409 | 190214
11 | 42:16.15 | 3:58.01 | 190215 | 208065
12 | 46:14.16 | 4:05.65 | 208066 | 226505
13 | 50:20.06 | 4:03.65 | 226506 | 244795
14 | 54:23.71 | 4:54.47 | 244796 | 266892
15 | 59:18.43 | 2:53.47 | 266893 | 279914
16 | 62:12.15 | 4:26.08 | 279915 | 299872
17 | 66:38.23 | 4:02.00 | 299873 | 318022
18 | 70:40.23 | 3:55.41 | 318023 | 335688
19 | 74:35.64 | 3:42.31 | 335689 | 352369

Range status and errors

Selected range

Filename D:\Music\Various - Пам’яті Володимира Івасюка\Various - Пам’яті Володимира Івасюка.wav

Peak level 94.4 %
Extraction speed 0.2 X
Range quality 100.0 %
Copy CRC EB2AE294
Copy OK

No errors occurred

End of status report
fooCDtect

fooCDtect - foobar2000 + auCDtect, baralgin.

auCDtect: CD records authenticity detector, version 0.8.2
Copyright (c) 2004 Oleg Berngardt. All rights reserved.
Copyright (c) 2004 Alexander Djourik. All rights reserved.

mode: 0

=======================================================
Track: 01 - Балада про дві скрипки
Quality: MPEG, 91%
=======================================================
Track: 02 - Червона рута
Quality: CDDA, 49%
=======================================================
Track: 03 - Тільки раз цвіте любов
Quality: MPEG, 89%
=======================================================
Track: 04 - Я голову схиляю
Quality: CDDA, 43%
=======================================================
Track: 05 - Рідний край
Quality: MPEG, 79%
=======================================================
Track: 06 - Ти
Quality: MPEG, 89%
=======================================================
Track: 07 - Стожари
Quality: CDDA, 49%
=======================================================
Track: 08 - Водограй
Quality: CDDA, 43%
=======================================================
Track: 09 - Я піду в далекі гори
Quality: CDDA, 42%
=======================================================
Track: 10 - Жовтий лист
Quality: CDDA, 43%
=======================================================
Track: 11 - Нестримна течія
Quality: MPEG, 80%
=======================================================
Track: 12 - Я — твоє крило
Quality: MPEG, 80%
=======================================================
Track: 13 - Пісня буде поміж нас
Quality: CDDA, 86%
=======================================================
Track: 14 - Вернись із спогадів
Quality: MPEG, 93%
=======================================================
Track: 15 - Водограй
Quality: MPEG, 95%
=======================================================
Track: 16 - Балада про дві скрипки
Quality: MPEG, 95%
=======================================================
Track: 17 - Червона рута
Quality: MPEG, 95%
=======================================================
Track: 18 - Тільки раз цвіте любов
Quality: MPEG, 95%
=======================================================
Track: 19 - Стожари
Quality: MPEG, 95%
=======================================================
Якщо Ви справді бажаєте підтримати українське - після прослуховування, якщо музика вам сподобалась, придбайте ліцензійний диск. Підтримаймо вітчизняних виконавців!


Срібний реліз (на рейтинг впливає 50% завантаженого)
 Трекер:    Зареєстрований   

Завантажити / скачати українську музику



відео для новачків



 Зареєстрований:   2011-04-16 08:43
 Розмір:   538 MB 
 Оцінка музики:   8.5/10 (Голосів: 10)
   
mihalychs 
Новенький


З нами з: 22.12.11
Востаннє: 03.01.16
Повідомлень: 2

2012-01-15 23:25  
Дуже люблю ці пісні, але виконання розчарувало Sad (1)
Gromoslav88 
Новенький


З нами з: 06.02.13
Востаннє: 10.11.14
Повідомлень: 3

2014-05-20 07:44  
Станьне на роздачу, будь-ласка.
Ваш часовий пояс: GMT + 2 Години

Нова тема   Відповісти