Завантажити та скачати торренти українською


Остап Стахів - Пам’яті В.Івасюка (2006) [FLAC] | Pop

Нові коментарі

Нова тема   Відповісти
Автор Повідомлення
civ 
VIP


З нами з: 16.02.11
Востаннє: 04.12.16
Повідомлень: 429

2011-04-15 19:26  
Остап Стахів - Пам’яті В.Івасюка (2006) [FLAC] | Pop


Стиль: Pop
Країна, місто: Україна, с. Мално (Івано-Франківщина)
Видавець: Ліда
Виконавці:
Остап Стахів
Пісні:
    01. Червона рута
    02. Два перстені
    03. Я піду в далекі гори
    04. Водограй
    05. Пісня буде поміж нас
    06. Капелюх
    07. Нестримна течія
    08. Я — твоє крило
    09. Балада про дві скрипки
    10. Золотоволоска
    11. У долі своя весна
    12. Балада про мальви

Тривалість: 00:40:57
Мова: українська
Бітрейт: 899 кб/с
Джерело: власний ріп
Тип ріпу: image+CUE
Особливості релізу: cue, log та обкладинки є у роздачі та вбудовані у flac, заповнені теги композитор, поет та лірика

Додаткова інформація:
Остап Стахів, як відомо, вже не перший рік працює у напрямку оновлення відомих мелодій, пісень – прагне надавати більш сучасного звучання, шукає більш актуальних прочитань. І це не зважаючи на той факт, що він же є бандуристом – а для бандуристів, зазвичай, такий підхід до традиції є не надто характерним. Втім, у всякому правилі існують винятки – і це добре, бо іншому випадку жоден рух був би неможливим. Гадаємо, саме такими міркуваннями і можна пояснити особливості звучання цього альбому пісень Володимира Івасюка у виконанні Остапа Стахіва. Шанувальникам "старої школи", можливо, подібні експерименти і не здадуться дотепними – але, з іншого боку, чому не спробувати? Пісні Івасюка пережили багато інтерпретацій – але більшість цих прочитань було створено вже доволі давно. Надійшло нове покоління – то як же не спробувати говорити з ним його ж мовою? Тим більше, що ці пісні досі не втрачають свіжості й краси. Та й навряд колись втратять.


Умка
EAC log

Exact Audio Copy V1.0 beta 1 from 15. November 2010

EAC extraction logfile from 14. April 2011, 8:20

Остап Стахів / Пам’яті В.Івасюка

Used drive : Optiarc DVD RW AD-7200A Adapter: 0 ID: 0

Read mode : Secure
Utilize accurate stream : Yes
Defeat audio cache : Yes
Make use of C2 pointers : No

Read offset correction : 0
Overread into Lead-In and Lead-Out : No
Fill up missing offset samples with silence : Yes
Delete leading and trailing silent blocks : No
Null samples used in CRC calculations : No
Used interface : Native Win32 interface for Win NT & 2000

Used output format : Internal WAV Routines
Sample format : 44.100 Hz; 16 Bit; Stereo

TOC of the extracted CD

Track | Start | Length | Start sector | End sector
---------------------------------------------------------
1 | 0:00.00 | 3:20.08 | 0 | 15007
2 | 3:20.08 | 3:16.54 | 15008 | 29761
3 | 6:36.62 | 3:24.13 | 29762 | 45074
4 | 10:01.00 | 3:33.56 | 45075 | 61105
5 | 13:34.56 | 3:19.35 | 61106 | 76065
6 | 16:54.16 | 2:49.19 | 76066 | 88759
7 | 19:43.35 | 3:00.56 | 88760 | 102315
8 | 22:44.16 | 3:39.36 | 102316 | 118776
9 | 26:23.52 | 3:17.67 | 118777 | 133618
10 | 29:41.44 | 3:11.47 | 133619 | 147990
11 | 32:53.16 | 3:43.04 | 147991 | 164719
12 | 36:36.20 | 4:21.08 | 164720 | 184302

Range status and errors

Selected range

Filename D:\Music\Остап Стахів - Пам’яті В.Івасюка\Остап Стахів - Пам’яті В.Івасюка.wav

Peak level 94.4 %
Extraction speed 0.3 X
Range quality 100.0 %
Copy CRC AC290E55
Copy OK

No errors occurred

End of status report
fooCDtect

fooCDtect - foobar2000 + auCDtect, baralgin.

auCDtect: CD records authenticity detector, version 0.8.2
Copyright (c) 2004 Oleg Berngardt. All rights reserved.
Copyright (c) 2004 Alexander Djourik. All rights reserved.

mode: 0

=======================================================
Track: 01 - Червона рута
Quality: MPEG, 95%
=======================================================
Track: 02 - Два перстені
Quality: MPEG, 95%
=======================================================
Track: 03 - Я піду в далекі гори
Quality: MPEG, 95%
=======================================================
Track: 04 - Водограй
Quality: MPEG, 95%
=======================================================
Track: 05 - Пісня буде поміж нас
Quality: MPEG, 95%
=======================================================
Track: 06 - Капелюх
Quality: MPEG, 95%
=======================================================
Track: 07 - Нестримна течія
Quality: MPEG, 95%
=======================================================
Track: 08 - Я — твоє крило
Quality: MPEG, 95%
=======================================================
Track: 09 - Дві скрипки
Quality: MPEG, 95%
=======================================================
Track: 10 - Золотоволоска
Quality: MPEG, 95%
=======================================================
Track: 11 - У долі своя весна
Quality: MPEG, 95%
=======================================================
Track: 12 - Балада про мальви
Quality: MPEG, 95%
=======================================================
Якщо Ви справді бажаєте підтримати українське - після прослуховування, якщо музика вам сподобалась, придбайте ліцензійний диск. Підтримаймо вітчизняних виконавців!


Срібний реліз (на рейтинг впливає 50% завантаженого)
 Трекер:    Зареєстрований   

Завантажити / скачати українську музику



відео для новачків



 Зареєстрований:   2011-04-15 20:56
 Розмір:   270 MB 
 Оцінка музики:   10/10 (Голосів: 4)
   
civ 
VIP


З нами з: 16.02.11
Востаннє: 04.12.16
Повідомлень: 429

2011-04-15 20:52  
Я не думаю, що такі погані показники аудіочекера — через апконверт для тиражування диску. Здається мені, що це сам запис такої якості. Схоже, що писалося у когось на домашній студії.
Також залишився невідомим рік видання. На самому диску жодних натяків на рік видання немає. Я цей диск купив випадково у 2007 році на Майдані у Києві. А поставив 2006 рік, бо з тим роком ця позиція є у каталозі "Ліди".

Додано через 1 годину 15 хвилин 59 секунд:

Замінив торент, бо помітив орфографічну помилку.

Ваш часовий пояс: GMT + 2 Години

Нова тема   Відповісти