Завантажити та скачати торренти українською


Олесь Дяк - Хвиля щастя (2004) [FLAC] | Bard

Нові коментарі

Нова тема   Відповісти
Автор Повідомлення
civ 
VIP


З нами з: 16.02.11
Востаннє: 08.12.16
Повідомлень: 429

2011-04-12 19:39  
Олесь Дяк - Хвиля щастя (2004) [FLAC] | Bard




Стиль: Bard
Країна, місто: Україна, Львів
Видавець: Росток Рекордс
Виконавці:
Олесь Дяк
Пісні:
    01. Хвиля щастя
    02. Київ осінній
    03. Одна хвилина біля мами
    04. Ой ти місяцю
    05. Молитва за нас (присвята Орестові Скопу)
    06. Не відцвітай
    07. Пісня менестреля (присвята Романові Романишину)
    08. Коляда
    09. Голос крові
    10. Молода зима
    11. Правда про нас всіх
    12. Любов свята
    13. Що вибере пам’ять (пам’яті Володимира Івасюка)

Тривалість: 00:43:23
Мова: українська
Аудіо-кодек: FLAC
Бітрейт: 971 кб/с
Джерело: власний ріп
Тип ріпу: image + CUE
EAC log

Exact Audio Copy V0.99 prebeta 5 from 4. May 2009

Звіт EAC про видобування, котре виконане 30. листопада 2009, 12:48

Олесь Дяк / Хвиля щастя

Дисковод: Optiarc DVD RW AD-7200A Adapter: 0 ID: 0

Режим читання : Точний
Використати точний потік : Так
Вимкнути аудіо кеш : Ні
Застосувати мітки C2 : Так

Корекція зміщення при читанні : 0
Екстрачитання областей Lead-in і Lead-out : Ні
Заповнення пропущених семплів тишею : Так
Видалення блоків з тишею на початку і кінці : Ні
При вирахуванні CRC використовувались нульові семпли : Ні
Використаний інтерфейс : 'Рідний' Win32-інтерфейс для Win NT/2000

Застосований вихідний формат : Внутрішні WAV-операції
Формат семпла : 44.100 Гц; 16 біт; стерео

TOC видобутого CD

Трек | Старт | Довжина | Початковий сектор | Кінцевий сектор
------------------------------------------------------------------
1 | 0:00.00 | 3:13.30 | 0 | 14504
2 | 3:13.30 | 2:12.15 | 14505 | 24419
3 | 5:25.45 | 3:37.56 | 24420 | 40750
4 | 9:03.26 | 2:45.17 | 40751 | 53142
5 | 11:48.43 | 2:18.50 | 53143 | 63542
6 | 14:07.18 | 4:45.27 | 63543 | 84944
7 | 18:52.45 | 4:11.15 | 84945 | 103784
8 | 23:03.60 | 2:27.48 | 103785 | 114857
9 | 25:31.33 | 4:04.14 | 114858 | 133171
10 | 29:35.47 | 3:23.68 | 133172 | 148464
11 | 32:59.40 | 3:57.38 | 148465 | 166277
12 | 36:57.03 | 2:48.19 | 166278 | 178896
13 | 39:45.22 | 3:37.49 | 178897 | 195220

Статус діапазону і помилки

Обраний діапазон

Ім'я файлу D:\Music\Олесь Дяк - Хвиля щастя.wav

Піковий рівень 100.0 %
Якість діапазону 100.0 %
CRC копії 163C7EB3
Копіювання... OK

Помилки не траплялися

Кінець звіту
fooCDtect

fooCDtect - foobar2000 + auCDtect, baralgin.

auCDtect: CD records authenticity detector, version 0.8.2
Copyright (c) 2004 Oleg Berngardt. All rights reserved.
Copyright (c) 2004 Alexander Djourik. All rights reserved.

mode: 0

=======================================================
Track: 01 - Олесь Дяк - Хвиля щастя
Quality: CDDA, 100%
=======================================================
Track: 02 - Олесь Дяк - Київ осінній
Quality: CDDA, 100%
=======================================================
Track: 03 - Олесь Дяк - Одна хвилина біля мами
Quality: CDDA, 100%
=======================================================
Track: 04 - Олесь Дяк - Ой ти місяцю
Quality: CDDA, 100%
=======================================================
Track: 05 - Олесь Дяк - Молитва за нас (присвята Орестові Скопу)
Quality: CDDA, 100%
=======================================================
Track: 06 - Олесь Дяк - Не відцвітай
Quality: CDDA, 100%
=======================================================
Track: 07 - Олесь Дяк - Пісня менестреля (присвята Романові Романишину)
Quality: CDDA, 100%
=======================================================
Track: 08 - Олесь Дяк - Коляда
Quality: CDDA, 99%
=======================================================
Track: 09 - Олесь Дяк - Голос крові
Quality: CDDA, 100%
=======================================================
Track: 10 - Олесь Дяк - Молода зима
Quality: CDDA, 99%
=======================================================
Track: 11 - Олесь Дяк - Правда про нас всіх
Quality: CDDA, 100%
=======================================================
Track: 12 - Олесь Дяк - Любов свята
Quality: CDDA, 100%
=======================================================
Track: 13 - Олесь Дяк - Що вибере пам’ять (пам’яті Володимира Івасюка)
Quality: CDDA, 100%
=======================================================


Срібний реліз (на рейтинг впливає 50% завантаженого)
 Трекер:    Зареєстрований   

Завантажити / скачати українську музику



відео для новачків



 Зареєстрований:   2011-04-12 19:39
 Розмір:   304 MB 
 Оцінка музики:   10/10 (Голосів: 2)
   
ssTAss 
Модератор музики


З нами з: 05.07.08
Востаннє: 08.12.16
Повідомлень: 10948

2011-04-12 22:49  
клас
ще б "Магію Львова" Rolleyes (2)

iwan wan 
VIP


З нами з: 01.10.09
Востаннє: 08.12.16
Повідомлень: 1762

2011-04-17 21:46  
А в мр3 ?
civ 
VIP


З нами з: 16.02.11
Востаннє: 08.12.16
Повідомлень: 429

2011-04-18 05:35  
Давай сам.
iwan wan 
VIP


З нами з: 01.10.09
Востаннє: 08.12.16
Повідомлень: 1762

2011-04-18 19:31  
Добре.civ якщо ти не проти ,то я перекодую в мр3 ще пару твоїх релізів
civ 
VIP


З нами з: 16.02.11
Востаннє: 08.12.16
Повідомлень: 429

2011-04-18 19:59  
Ні, я не проти. Перекодуй та викладай, що хочеш - хоч і всі.
Gienek_Lwow 
VIP


З нами з: 28.09.10
Востаннє: 08.12.16
Повідомлень: 541

2016-12-04 01:54  
ssTAss написано:

клас
ще б "Магію Львова" Rolleyes (2)


Олесь Дяк - Магія Львова (2001) [FLAC, TapeRip] | Bard

Ваш часовий пояс: GMT + 2 Години

Нова тема   Відповісти