Завантажити та скачати торренти українською


Хвилю тримай - Хвилю тримай (2004) [APE] | Pop

Нові коментарі

Нова тема   Відповісти
Автор Повідомлення
iwan wan 
VIP


З нами з: 01.10.09
Востаннє: 10.12.16
Повідомлень: 1762

2011-04-04 22:07  
Хвилю тримай - Хвилю тримай (2004) [APE] | Pop



Стиль: Pop
Країна, місто: Україна, Івано - Франківськ
Сайти: Офіційний сайт
Видавець: Hunter Music Ukraine
Виконавці:
Лев - вокал, гітар, синтезатор
Хоттаб - бас гітара, вокал
Сергій Леонов - гітара
Сергій Клепач - барабани

Пісні:
    01. Зима прийшла
    02. Крихітний світ...
    03. Світанок...
    04. Літо прийшло...
    05. Однокласниця
    06. На півночі вночі
    07. Холодний день
    08. Полетим...
    09. Хей-хай
    10. Море
    11. Полетим... (new-mix)
    12. Полетим... (tek-step-vision)

Тривалість: 00:42:27
Мова: українська
Аудіо-кодек: APE
Бітрейт: 1010 кб/с
Джерело: Інший трекер
Додаткова інформація:
Про гурт
Давня дружба двох закадичних друзів музикантів Льови та Хатаба, що почалася ще з кінця 80-х років, через безкінечні творчі пошуки та експерименти привела їх до створення у 1996 році групи з промовистою назвою Хвилю тримай, що походить від написаної в цей же період однойменної пісні.
Здобувши перемогу на фестивалі Перлини сезону-98, та заявивши про себе на всю країну завдяки щільній ротації на популярному на той час музичному телеканалі БІЗ-ТВ, група в подальшому не пішла по шляху досягнення швидкого успіху будь-якою ціною. Навпаки, достатньо познайомившись з тодішніми столичними рекординговими компаніями, а також різноманітними ділками від музики, хлопці відчули, що не хочуть прийняти нав’язувані їм умови гри, а самостійно представити свою музику на той час вони були просто не готові.
Тому, повернувшись у рідний Івано-Франківськ та зібравши повноцінний колектив у вигляді класичної гітарної четвірки, вони починають активно концертувати, і в перервах між виступами працюють у студії над записом свого довгоочікуваного дебютного альбому.
В цей період, крім усього іншого, на хлопців звалилось ще й ціла серія важких, а часами навіть драматичних випробувань особистого характеру, котрі, як сподіваються самі музиканти, на щастя уже минули, і справді були найважчими часами у їхньому житті.
Та всі ці події, хоч і стали серйозним випробуванням на міцність дружби і стійкість позиції, все одно нічого не змогли змінити в ставленні до життя і спільної справи. Навпаки, як реакція на безвихідні ситуації та безрадісні перспективи реальних подій, музика групи наповнилася світлими мріями і чистою безумовною вірою у майбутнє.
І ось до зими 2003-го група прийшла з повністю записаним і майже зведеним альбомом, та добре зіграною і обкатаною концертною програмою.
Та найважливішою подією в житті колективу стало підписання у лютому 2004р. контракту про випуск дебютного альбому.
Якщо спробувати проаналізувати стиль і загальну естетику альбому у декількох словах, то перш за все треба сказати, що музика групи є досить своєрідною і ні на кого не схожою. Вже традиційна плутанина з визначенням поп це чи рок, з виходом альбому навряд чи зникне.
Самі ж музиканти ніяк себе не класифікують, хоча зауважують, що, на їхню думку, у музиці групи предостатньо і першого, і другого.
Як зауважив фронтмен групи Льова - "виходить, на концерті ми рок, а у студії – поп".
Але в дійсності не так вже й важливо, який це стиль і які у нього плюси чи мінуси. Справжнє значення має лише той дивний зв’язок, той непояснюваний енергетичний конект, що відбувається між музикантом і слухачем на найтоншому емоційному рівні і примушує працювати ті незвідані закутки людської душі, про існування яких ми дуже часто навіть і не здогадуємося.
log
Exact Audio Copy V1.0 beta 1 from 15. November 2010
EAC extraction logfile from 2. January 2011, 12:59
Хвилю тримай / Хвилю тримай
Used drive : TSSTcorpDVD+-RW TS-L632H Adapter: 0 ID: 0
Read mode : Secure
Utilize accurate stream : Yes
Defeat audio cache : Yes
Make use of C2 pointers : No
Read offset correction : 6
Overread into Lead-In and Lead-Out : No
Fill up missing offset samples with silence : Yes
Delete leading and trailing silent blocks : No
Null samples used in CRC calculations : Yes
Used interface : Native Win32 interface for Win NT & 2000
Used output format : Monkey's Audio Lossless Encoder v3.99 DLL
Sample format : High Lossless Compression
TOC of the extracted CD
Track | Start | Length | Start sector | End sector
---------------------------------------------------------
1 | 0:00.00 | 4:07.54 | 0 | 18578
2 | 4:07.54 | 3:48.06 | 18579 | 35684
3 | 7:55.60 | 4:07.06 | 35685 | 54215
4 | 12:02.66 | 3:02.61 | 54216 | 67926
5 | 15:05.52 | 4:24.29 | 67927 | 87755
6 | 19:30.06 | 2:19.69 | 87756 | 98249
7 | 21:50.00 | 4:28.45 | 98250 | 118394
8 | 26:18.45 | 3:07.00 | 118395 | 132419
9 | 29:25.45 | 3:18.22 | 132420 | 147291
10 | 32:43.67 | 3:15.54 | 147292 | 161970
11 | 35:59.46 | 3:13.11 | 161971 | 176456
12 | 39:12.57 | 3:18.73 | 176457 | 191379
13 | 45:03.55 | 15:47.30 | 202780 | 273834
Range status and errors
Selected range
Filename C:\Хвилю тримай\Хвилю тримай - Хвилю тримай.ape
Peak level 100.0 %
Extraction speed 1.5 X
Range quality 100.0 %
Test CRC 7CA9B827
Copy CRC 7CA9B827
Copy OK
No errors occurred
AccurateRip summary
Track 1 not present in database
Track 2 not present in database
Track 3 not present in database
Track 4 not present in database
Track 5 not present in database
Track 6 not present in database
Track 7 not present in database
Track 8 not present in database
Track 9 not present in database
Track 10 not present in database
Track 11 not present in database
Track 12 not present in database
None of the tracks are present in the AccurateRip database
End of status report
Якщо Ви справді бажаєте підтримати українське - після прослуховування, якщо музика вам сподобалась, придбайте ліцензійний диск. Підтримаймо вітчизняних виконавців!


Срібний реліз (на рейтинг впливає 50% завантаженого)
 Трекер:    Зареєстрований   

Завантажити / скачати українську музику



відео для новачків



 Зареєстрований:   2011-04-04 22:07
 Розмір:   307 MB 
 Оцінка музики:   10/10 (Голосів: 10)
   
Ваш часовий пояс: GMT + 2 Години

Нова тема   Відповісти