Завантажити та скачати торренти українською


Три дні на втечу / The Next Three Days (2010) 720p Ukr/Eng | Sub Ukr

Нові коментарі

Нова тема   Відповісти
Автор Повідомлення
Гірський Кришталь 
Свій


З нами з: 07.01.09
Востаннє: 06.10.16
Повідомлень: 129

2011-04-02 16:23  
Три дні на втечу / The Next Three Days (2010) 720p Ukr/Eng | Sub Ukr



Жанр: Триллер, Драма, Кримінал, Мелодрама
Країна: США



Кіностудія / кінокомпанія: Lionsgate
Режисер: Пол Хаггіс
Актори: Рассел Кроу, Елізабет Бенкс, Ленні Джеймс, Ті Кіген Сімпкінс, Олівія Вайлд, Ліам Нісон
відкрити
Сюжет:
Життя Джона здавалося ідеальним, поки його красуню дружину не заарештували за підозрою у вбивстві. Поки Лара сидить у в'язниці, Джон один виховує сина і намагається всіма способами довести її невинність.
Але, коли законні способи звільнити кохану вичерпані, єдине, що йому залишається - розробити витончений план втечі. Джон готовий ризикнути всім заради неї ...


Тривалість: 2:13:05
Якість:
Відео:
кодек: x.264
розмір кадру: 1280 х 544
бітрейт: 3970 кб/с

Аудіо # 1:
мова: українська
переклад: професійний дубльований
кодек: 5.1
бітрейт: 384 кб/с

Аудіо # 2:
мова: англійська
переклад: оригінал
кодек: 5.1
бітрейт: 384 кб/с

Переклад і озвучення виконано:


Субтитри:
мова: українська
тип: програмні (м'які)
формат: *.srt

MediaInfo

General
Unique ID : 220497009262021245565737249302172239316 (0xA5E22DE5330D59C1BB06A06DF2B585D4)
Complete name : \\Vova-pc\ukr\\720p\Три дні на втечу.mkv
Format : Matroska
Format version : Version 2
File size : 4.37 GiB
Duration : 2h 13mn
Overall bit rate : 4 698 Kbps
Encoded date : UTC 2011-04-02 11:43:01
Writing application : mkvmerge v4.6.0 ('Still Crazy After All These Years') сборка от Mar 10 2011 02:50:32
Writing library : libebml v1.2.0 + libmatroska v1.1.0

Video
ID : 1
Format : AVC
Format/Info : Advanced Video Codec
Format profile : [email protected]
Format settings, CABAC : Yes
Format settings, ReFrames : 10 frames
Muxing mode : Header stripping
Codec ID : V_MPEG4/ISO/AVC
Duration : 2h 13mn
Bit rate : 3 930 Kbps
Width : 1 280 pixels
Height : 544 pixels
Display aspect ratio : 2.35:1
Frame rate mode : Constant
Frame rate : 23.976 fps
Color space : YUV
Chroma subsampling : 4:2:0
Bit depth : 8 bits
Scan type : Progressive
Bits/(Pixel*Frame) : 0.235
Stream size : 3.57 GiB (82%)
Title : 1280x544 Kbps
Writing library : core 114 r1913 5fd3dce
Encoding settings : cabac=1 / ref=10 / deblock=1:-1:-1 / analyse=0x3:0x133 / me=umh / subme=10 / psy=1 / psy_rd=1.00:0.15 / mixed_ref=1 / me_range=16 / chroma_me=1 / trellis=2 / 8x8dct=1 / cqm=0 / deadzone=21,11 / fast_pskip=1 / chroma_qp_offset=-3 / threads=3 / sliced_threads=0 / nr=0 / decimate=1 / interlaced=0 / constrained_intra=0 / bframes=3 / b_pyramid=2 / b_adapt=1 / b_bias=0 / direct=1 / weightb=1 / open_gop=0 / weightp=2 / keyint=250 / keyint_min=23 / scenecut=40 / intra_refresh=0 / rc_lookahead=40 / rc=2pass / mbtree=1 / bitrate=3930 / ratetol=1.0 / qcomp=0.60 / qpmin=10 / qpmax=69 / qpstep=4 / cplxblur=20.0 / qblur=0.5 / ip_ratio=1.40 / aq=1:1.00
Language : English
Default : Yes
Forced : No
Color primaries : Generic film

Audio #1
ID : 2
Format : AC-3
Format/Info : Audio Coding 3
Mode extension : CM (complete main)
Format settings, Endianness : Big
Muxing mode : Header stripping
Codec ID : A_AC3
Duration : 2h 13mn
Bit rate mode : Constant
Bit rate : 384 Kbps
Channel count : 6 channels
Channel positions : Front: L C R, Side: L R, LFE
Sampling rate : 48.0 KHz
Bit depth : 16 bits
Compression mode : Lossy
Stream size : 366 MiB (8%)
Title : 5.1 384 Kbps
Language : Ukrainian
Default : Yes
Forced : No

Audio #2
ID : 3
Format : AC-3
Format/Info : Audio Coding 3
Mode extension : CM (complete main)
Format settings, Endianness : Big
Muxing mode : Header stripping
Codec ID : A_AC3
Duration : 2h 13mn
Bit rate mode : Constant
Bit rate : 384 Kbps
Channel count : 6 channels
Channel positions : Front: L C R, Side: L R, LFE
Sampling rate : 48.0 KHz
Bit depth : 16 bits
Compression mode : Lossy
Stream size : 366 MiB (8%)
Title : 5.1 384 Kbps
Language : English
Default : No
Forced : No

Text
ID : 4
Format : UTF-8
Codec ID : S_TEXT/UTF8
Codec ID/Info : UTF-8 Plain Text
Language : Ukrainian
Default : No
Forced : No


Скріншоти





Джерело:
Особиста оцінка: 10 - без зайвих вагань рекомендую всім!


 Трекер:    Зареєстрований   

Завантажити / скачати фільм українською



відео для новачків



 Зареєстрований:   2011-04-02 16:23
 Розмір:   4.37 GB 
 Оцінка фільму:   9.6/10 (Голосів: 43)
   
Інші релізи
simon 2 
Відео Гуртом - підтримка та поширення
Відео Гуртом - підтримка та поширення


З нами з: 27.03.11
Востаннє: 13.05.12
Повідомлень: 341

2011-06-06 14:38  
За скрінами багато можна зрозуміти. Happy
simon 2 
Відео Гуртом - підтримка та поширення
Відео Гуртом - підтримка та поширення


З нами з: 27.03.11
Востаннє: 13.05.12
Повідомлень: 341

2011-06-07 12:55  
Можу допомогти з роздачею якщо треба.
SmailukUkr 
Новенький


З нами з: 07.10.11
Востаннє: 28.11.16
Повідомлень: 20

2011-11-03 00:57  
Фільм просто БОМБА!!! Рекомендую ВСІМ!!!
Dinamit777 
Свій


З нами з: 09.07.10
Востаннє: 12.01.12
Повідомлень: 55

2011-12-16 22:56  
Після перегляду можу сказати що фільм непоганий, але мушу видаляти, так що втікаю з роздачі.
dvorsky 
Відео Гуртом - запис з ТБ
Відео Гуртом - запис з ТБ


З нами з: 20.12.07
Востаннє: 03.12.16
Повідомлень: 236

2012-01-10 19:56  
звіт MediaInfo в студію
Bagum 
Новенький


З нами з: 11.12.11
Востаннє: 25.11.16
Повідомлень: 10

2013-06-28 21:13  
Після перегляду можу сказати що фільм просто БОМБА!!! Рекомендую
oleksandr.vp 
Новенький


З нами з: 01.05.11
Востаннє: 14.04.15
Повідомлень: 2

2015-04-03 07:54  
Приєднуюсь - фільм класний!
ua2014 
Новенький


З нами з: 29.04.14
Востаннє: 01.12.16
Повідомлень: 7

2016-07-15 20:05  
Дякую, один із моїх улюблених фільмів!
Ваш часовий пояс: GMT + 2 Години

Нова тема   Відповісти