Завантажити та скачати торренти українською


Макс Пейн [Розширена версія] / Max Payne [Unrated] (2008) 720p 2xUkr/Eng | Sub Ukr/Eng

Нові коментарі

Нова тема   Відповісти
Автор Повідомлення
braveboy 
Відео Гуртом - команда HD
Відео Гуртом - команда HD


З нами з: 15.06.10
Востаннє: 29.10.16
Повідомлень: 958

2011-03-21 23:55  

Макс Пейн [Розширена версія] / Max Payne [Unrated] (2008)
720p 2xUkr/Eng | Sub Ukr/Eng



«Нью-Йорк. Утікач-коп. Йому немає чого втрачати »


Жанр: бойовик, пригоди, драма, трилер, екранцізація гри
Країна: США, Канада



Кіностудія / кінокомпанія: 20th Century Fox
Режисер: Джон Мур
Актори: Марк Уолберг, Міла Куніс, Бо Бріджес, Лудакріс, Кріс О'Доннел, Донал Лог, Амаурі Ноласко, Кейт Бартон, Ольга Куриленко, Маріанті Еванс, Неллі Фуртадо

Бюджет: $ 35 млн
Збори в США: $ 40689393
Збори в світі: $ 44710874
Реліз на DVD: 27 листопада 2008, 18 грудня 2008
Нагороди:

Золота малина, 2009 рік

Номінації (1):
найгірша чоловіча роль
Сюжет:
Макс Пейн працює в управлінні з боротьби з наркотиками. Одного дня його життя повністю змінюється: якийсь божевільний злочинець вбиває дружину й дочку Макса. У поліцейського, який втратив усе, в житті залишається одна мета – знайти вбивцю...



Тривалість: 01:42:58
Якість: 720p
Відео:
кодек:
розмір кадру: 1280 x 534
бітрейт: 4986 кб/с

Аудіо # 1:
мова: українська
переклад: професійний дубльований
кодек: 5.1
бітрейт: 448 кб/с

Аудіо # 2:
мова: українська
переклад: професійний дубльований
кодек: 2.0
бітрейт: 192 кб/с

Аудіо # 3:
мова: англійська
переклад: оригінал
кодек: 5.1
бітрейт: 640 кб/с

Субтитри:
мова: українська
тип: програмні (м'які)
формат: *.srt

Субтитри:
мова: англійська
тип: програмні (м'які)
формат: *.srt

720p by braveboy
log

[info]: frame I:1282 Avg QP:15.33 size:101210
[info]: frame P:33258 Avg QP:16.82 size: 46074
[info]: frame B:113596 Avg QP:18.77 size: 19264
[info]: consecutive B-frames: 2.5% 2.8% 5.7% 28.2% 18.0% 30.6% 12.2%
[info]: mb I I16..4: 7.1% 74.2% 18.7%
[info]: mb P I16..4: 2.2% 19.4% 2.9% P16..4: 31.5% 22.5% 17.5% 1.0% 0.3% skip: 2.5%
[info]: mb B I16..4: 0.2% 2.6% 0.5% B16..8: 39.7% 17.9% 6.0% direct: 6.5% skip:26.7% L0:45.3% L1:43.1% BI:11.6%
[info]: 8x8 transform intra:78.9% inter:52.8%
[info]: coded y,uvDC,uvAC intra: 92.3% 80.2% 58.0% inter: 40.0% 26.7% 9.4%
[info]: i16 v,h,dc,p: 30% 11% 11% 48%
[info]: i8 v,h,dc,ddl,ddr,vr,hd,vl,hu: 10% 8% 7% 10% 14% 13% 13% 12% 13%
[info]: i4 v,h,dc,ddl,ddr,vr,hd,vl,hu: 13% 7% 3% 10% 15% 14% 14% 11% 13%
[info]: i8c dc,h,v,p: 42% 24% 18% 15%
[info]: Weighted P-Frames: Y:12.5% UV:7.5%
[info]: ref P L0: 42.1% 8.4% 20.2% 8.2% 7.4% 5.3% 5.0% 3.0% 0.5% 0.1%
[info]: ref B L0: 67.9% 14.7% 7.4% 4.3% 3.1% 1.8% 0.7%
[info]: ref B L1: 91.4% 8.6%
[info]: kb/s:4985.52
MediaInfo

Video
ID : 1
Format : AVC
Format/Info : Advanced Video Codec
Format profile : [email protected]
Format settings, CABAC : Yes
Format settings, ReFrames : 8 frames
Codec ID : V_MPEG4/ISO/AVC
Duration : 1h 42mn
Bit rate : 4 986 Kbps
Width : 1 280 pixels
Height : 534 pixels
Display aspect ratio : 2.40:1
Frame rate mode : Constant
Frame rate : 23.976 fps
Color space : YUV
Chroma subsampling : 4:2:0
Bit depth : 8 bits
Scan type : Progressive
Bits/(Pixel*Frame) : 0.304
Stream size : 3.50 GiB (78%)
Title : Max Payne [Unrated] (2008) 720p by braveboy
Writing library : core 129 r2245 bc13772
Encoding settings : cabac=1 / ref=8 / deblock=1:-3:-3 / analyse=0x3:0x133 / me=umh / subme=9 / psy=1 / psy_rd=0.85:0.00 / mixed_ref=1 / me_range=24 / chroma_me=1 / trellis=1 / 8x8dct=1 / cqm=0 / deadzone=21,11 / fast_pskip=0 / chroma_qp_offset=-2 / threads=6 / lookahead_threads=1 / sliced_threads=0 / nr=0 / decimate=0 / interlaced=0 / bluray_compat=0 / constrained_intra=0 / bframes=6 / b_pyramid=2 / b_adapt=2 / b_bias=0 / direct=1 / weightb=1 / open_gop=0 / weightp=2 / keyint=240 / keyint_min=24 / scenecut=40 / intra_refresh=0 / rc=2pass / mbtree=0 / bitrate=4986 / ratetol=1.0 / qcomp=0.60 / qpmin=10 / qpmax=51 / qpstep=4 / cplxblur=20.0 / qblur=0.5 / ip_ratio=1.40 / pb_ratio=1.30 / aq=1:1.00
Default : Yes
Forced : No

Audio #1
ID : 2
Format : AC-3
Format/Info : Audio Coding 3
Mode extension : CM (complete main)
Format settings, Endianness : Big
Codec ID : A_AC3
Duration : 1h 42mn
Bit rate mode : Constant
Bit rate : 448 Kbps
Channel(s) : 6 channels
Channel positions : Front: L C R, Side: L R, LFE
Sampling rate : 48.0 KHz
Bit depth : 16 bits
Compression mode : Lossy
Stream size : 330 MiB (7%)
Title : 5.1 @ 448 kbps [ Blu-ray CEE]
Language : Ukrainian
Default : Yes
Forced : No

Audio #2
ID : 3
Format : AC-3
Format/Info : Audio Coding 3
Mode extension : CM (complete main)
Format settings, Endianness : Big
Codec ID : A_AC3
Duration : 1h 42mn
Bit rate mode : Constant
Bit rate : 192 Kbps
Channel(s) : 2 channels
Channel positions : Front: L R
Sampling rate : 48.0 KHz
Bit depth : 16 bits
Compression mode : Lossy
Stream size : 141 MiB (3%)
Title : 2.0 @ 192 kbps [2+2]
Language : Ukrainian
Default : No
Forced : No

Audio #3
ID : 4
Format : AC-3
Format/Info : Audio Coding 3
Mode extension : CM (complete main)
Format settings, Endianness : Big
Codec ID : A_AC3
Duration : 1h 42mn
Bit rate mode : Constant
Bit rate : 640 Kbps
Channel(s) : 6 channels
Channel positions : Front: L C R, Side: L R, LFE
Sampling rate : 48.0 KHz
Bit depth : 16 bits
Compression mode : Lossy
Stream size : 471 MiB (10%)
Title : 5.1 @ 640 kbps
Language : English
Default : No
Forced : No

Text #1
ID : 5
Format : UTF-8
Codec ID : S_TEXT/UTF8
Codec ID/Info : UTF-8 Plain Text
Title : Full
Language : Ukrainian
Default : No
Forced : No

Text #2
ID : 6
Format : UTF-8
Codec ID : S_TEXT/UTF8
Codec ID/Info : UTF-8 Plain Text
Title : Full
Language : English
Default : No
Forced : No

Menu
00:00:00.000 : en:00:00:00.000
00:01:55.741 : en:00:01:55.741
00:04:15.672 : en:00:04:15.672
00:08:23.461 : en:00:08:23.461
00:13:49.203 : en:00:13:49.203
00:17:04.732 : en:00:17:04.732
00:21:18.360 : en:00:21:18.360
00:23:20.649 : en:00:23:20.649
00:26:25.417 : en:00:26:25.417
00:30:33.206 : en:00:30:33.206
00:32:48.425 : en:00:32:48.425
00:34:54.634 : en:00:34:54.634
00:37:36.087 : en:00:37:36.087
00:44:08.855 : en:00:44:08.855
00:50:37.660 : en:00:50:37.660
00:55:12.809 : en:00:55:12.809
01:01:41.948 : en:01:01:41.948
01:04:22.150 : en:01:04:22.150
01:07:55.655 : en:01:07:55.655
01:15:17.054 : en:01:15:17.054
01:18:05.848 : en:01:18:05.848
01:21:21.418 : en:01:21:21.418
01:23:03.812 : en:01:23:03.812
01:26:23.470 : en:01:26:23.470
01:29:02.128 : en:01:29:02.128
01:33:31.105 : en:01:33:31.105
01:35:18.338 : en:01:35:18.338
01:41:18.698 : en:01:41:18.698
Скріншоти:

Особиста оцінка: 0 - не дивився


 Трекер:    Зареєстрований   

Завантажити / скачати фільм українською



відео для новачків



 Зареєстрований:   2014-07-30 21:16
 Розмір:   4.51 GB 
 Оцінка фільму:   9.5/10 (Голосів: 54)
   
Толя 
VIP


З нами з: 15.01.09
Востаннє: 09.12.16
Повідомлень: 394

2011-03-27 17:08  
Чим відрізняється від звичайної версії? Є місця без перекладу?
himera33a 
Відео Гуртом - дизайнер
Відео Гуртом - дизайнер


З нами з: 08.10.09
Востаннє: 10.12.16
Повідомлень: 119

2011-03-29 00:26  
Яка різниця під цю стрічку так добре спиться,
я його почав дивитись бо там промо ролик був просто супер і гра класна,
а фільм повна протилежність((((((((((((((((((((( А хотілось більшого

CrazyMaxUA 
Новенький


З нами з: 20.01.11
Востаннє: 10.12.16
Повідомлень: 12

2011-03-29 11:24  
Мені фільм сподобався, бачив в кіно і 2-а рази на ПК! Усім хто чекає таку собі постанову сюжету гри не сподобається, але бойовичок гарний!!! Сподобалось бачення та інтерпретація режисером і сценаристами, акторів гарно підібрали і всі вони гарно відіграли. Сподобалось, що фільм не повторює в точності сюжет гри. Сподобались сірі кольори в фільми, нагадує "Sin City" Wink (2)
Фільм слід дивитись не згадуючи про існування гри Wide grin

VoVaGhost88 
Новенький


З нами з: 06.11.10
Востаннє: 08.12.16
Повідомлень: 21

2011-03-29 19:18  
Досить непоганий фільм як на мене... Дякую за чудовий реліз! Побільше б саме таких ріпів - 720P, з розширенням 1280х..., і щоб на DVD5 вміщалось)) СУПЕР!
Virake 
Localize Team
Localize Team


З нами з: 07.07.09
Востаннє: 10.12.16
Повідомлень: 4074

2012-05-12 14:14  
та ну, 720p на 2ГБ? може, це й зручно, але сильно страждає якість.
Віктор 
Відео Гуртом - субтитрування
Відео Гуртом - субтитрування


З нами з: 09.01.10
Востаннє: 09.12.16
Повідомлень: 8664

2013-05-18 20:31  
По 1+1 інший дубляж.
ratbol 
Модератор HD


З нами з: 03.02.09
Востаннє: 09.12.16
Повідомлень: 1088

2013-06-05 12:44  
Що змінилось?
braveboy 
Відео Гуртом - команда HD
Відео Гуртом - команда HD


З нами з: 15.06.10
Востаннє: 29.10.16
Повідомлень: 958

2013-06-05 14:07  
ratbol написано:
Що змінилось?

оновив відеоряд

Virake 
Localize Team
Localize Team


З нами з: 07.07.09
Востаннє: 10.12.16
Повідомлень: 4074

2013-06-05 18:05  
молодець, це вже можна дивитися.
braveboy 
Відео Гуртом - команда HD
Відео Гуртом - команда HD


З нами з: 15.06.10
Востаннє: 29.10.16
Повідомлень: 958

2014-07-30 21:30  
добавив дорогу від 2+2
Ваш часовий пояс: GMT + 2 Години

Нова тема   Відповісти