Завантажити та скачати торренти українською


Олег Скрипка - Щедрик (Сингл) (2010) [FLAC] | Folk Rock

Нові коментарі

Нова тема   Відповісти
Автор Повідомлення
civ 
VIP


З нами з: 16.02.11
Востаннє: 02.12.16
Повідомлень: 428

2011-03-21 18:56  
Олег Скрипка - Щедрик (Сингл) (2010) [FLAC] | Folk Rock



Стиль: Folk Rock
Країна, місто: Україна, Київ
Сайти: Офіційний сайт
Видавець: Країна Мрій
Виконавці:
Олег Скрипка - вокал, гітари, аранжування
Тарас і Юля Чубай - другі голоси
Сергій Орхімчук - скрипка
Костянтин Бушинський - барабани
Вадим Губенко - контрабас
Василь Паланюк - цимбали
Олег Опанасюк, Іван Гринів - труби
Максим Дударик (Бережнюк) - сопілка
Сусанна Карпенко, Марія Фірсова, Ганна Архіпчук - хор

Пісні:
    01. Щедрик
    02. Carol of the Bells
    03. Щедрик (радіоверсія)
    04. Carol of the Bells (radio edit)
    05. Щедрик (відео)
    тех дані

    Тривалість: 00:03:57
    Відео:
    кодек: MPEG-2 DVD
    розмір кадру: 640 х 480 @ 720 x 480
    бітрейт: 8150 кб/с

    Аудіо:
    мова: українська
    кодек: MP2
    бітрейт: 224 кб/с


Тривалість: 00:20:49
Мова: українська (1, 3), англійська (2, 4)
Аудіо-кодек: FLAC
Бітрейт: 921 кб/с
Джерело: власний ріп
Тип ріпу: image+CUE
EAC log

Exact Audio Copy V1.0 beta 1 from 15. November 2010

EAC extraction logfile from 21. March 2011, 8:33

Олег Скрипка / Щедрик

Used drive : Optiarc DVD RW AD-7200A Adapter: 0 ID: 0

Read mode : Secure
Utilize accurate stream : Yes
Defeat audio cache : Yes
Make use of C2 pointers : No

Read offset correction : 0
Overread into Lead-In and Lead-Out : No
Fill up missing offset samples with silence : Yes
Delete leading and trailing silent blocks : No
Null samples used in CRC calculations : No
Used interface : Native Win32 interface for Win NT & 2000

Used output format : Internal WAV Routines
Sample format : 44.100 Hz; 16 Bit; Stereo

TOC of the extracted CD

Track | Start | Length | Start sector | End sector
---------------------------------------------------------
1 | 0:00.00 | 6:27.71 | 0 | 29095
2 | 6:27.71 | 6:24.06 | 29096 | 57901
3 | 12:52.02 | 3:59.30 | 57902 | 75856
4 | 16:51.32 | 3:57.30 | 75857 | 93661
5 | 23:20.62 | 27:42.47 | 105062 | 229758

Range status and errors

Selected range

Filename D:\Music\Олег Скрипка - Щедрик (2011)\Олег Скрипка - Щедрик.wav

Peak level 99.7 %
Extraction speed 4.5 X
Range quality 100.0 %
Copy CRC EDBF4B0A
Copy OK

No errors occurred

End of status report
fooCDtect

fooCDtect - foobar2000 + auCDtect, baralgin.

auCDtect: CD records authenticity detector, version 0.8.2
Copyright (c) 2004 Oleg Berngardt. All rights reserved.
Copyright (c) 2004 Alexander Djourik. All rights reserved.

mode: 0

=======================================================
Track: 01 - Щедрик
Quality: CDDA, 100%
=======================================================
Track: 02 - Carol of the Bells
Quality: CDDA, 100%
=======================================================
Track: 03 - Щедрик (радіоверсія)
Quality: CDDA, 100%
=======================================================
Track: 04 - Carol of the Bells (radio edit)
Quality: CDDA, 100%
=======================================================
Додаткова інформація:
Пісня «Щедрик» реалізована в студії «Лавра».
Режисер запису — Володимир Дяченко.
Зведення та мастерінг — Макс Капуста.
Художнє оформлення — NSid.

Кліп «Щедрик» знятий в студії «Новаторфільм».
Режисер — Степан Коваль.
Автор сценарію — Сашко Лірник.
Художник — Катерина Слонова.
Оператор — Вадим Ільков.
Головний аніматор — Андрій Слісаревський.


Якщо Ви справді бажаєте підтримати українське - після прослуховування, якщо музика вам сподобалась, придбайте ліцензійний диск. Підтримаймо вітчизняних виконавців!


Срібний реліз (на рейтинг впливає 50% завантаженого)
 Трекер:    Зареєстрований   

Завантажити / скачати українську музику



відео для новачків



 Зареєстрований:   2011-03-21 18:56
 Розмір:   382 MB 
 Оцінка музики:   9.6/10 (Голосів: 11)
   
Ваш часовий пояс: GMT + 2 Години

Нова тема   Відповісти