Завантажити та скачати торренти українською


Як оптимально налаштувати IPTV для запису з ТБ?

Нові коментарі

Нова тема   Відповісти
Автор Повідомлення
Dvd-master 
Відео Гуртом - запис з ТБ
Відео Гуртом - запис з ТБ


З нами з: 13.11.10
Востаннє: 09.12.16
Повідомлень: 250

2011-03-12 19:36  
Якщо я записую через IPTVPlayer наприклад серію з серіалу в мене виходить дуже великий розмір файлу. Наприклад Россійський цієї ж серії важить 300 мб -- мій запис вважить близько 2 гб. Як налаштувати, щоб запис був адекватного розміру?
gnommak 
VIP


З нами з: 20.10.07
Востаннє: 19.11.16
Повідомлень: 1953

2011-03-12 19:43  
Може ви в RAW пишете? Happy
Подивіться які кодеки стоять для компресії звуку. Якщо аудіо збараєтесь використовувати тільки з компютером, то використовуйте кодек 256 kbs/s максимально. Якщо звук для ДВД програвачів (широкого вжитку), то пишіть звук в MP3 (Lame MP3 безплатний кодек). 25 хв файлу не повинно перевищувати 70 мегабайт (судячи з мого досвіду), на фільм виходить десь 150-160 в дуже хорошій якості.
abodnya 
Відео Гуртом - фільмокрай
Відео Гуртом - фільмокрай


З нами з: 02.11.08
Востаннє: 07.12.16
Повідомлень: 5961

2011-03-12 19:45  
Зазвичай IPTV записує ремукси. Формат: MPEG-2 (mpg, ts)
З них вже треба робити ріпи. Ось гарна інструкція - http://toloka.to/t18490

Додано через 1 хвилину 14 секунд:

gnommak
Твоїм способом відео одразу кодується, до того в один потік. Тому такий спосіб поганий, оскільки таким чином не можна отримати найкращу якість
gnommak 
VIP


З нами з: 20.10.07
Востаннє: 19.11.16
Повідомлень: 1953

2011-03-12 19:59  
abodnya написано:
Твоїм способом відео одразу кодується, до того в один потік. Тому такий спосіб поганий, оскільки таким чином не можна отримати найкращу якість

Зато розмір в 17 мегабайт на 24 хв аніме рекорд Happy . Та ще й не поганої якості (ну 6 з 10 це точно), декотрі і при 50 мегабайтах такої якості не добиваються.
Можливо спосіб прямий, але при використанні кодеку аудіо редактори завжди зберігають 90% якості, відрізнити різницю між редагованим і не редагованим майже неможливо, перевірено неодноразово. Про mp3 не спорю Happy після 2-х конвертацій з нього мало що лишиться.
abodnya 
Відео Гуртом - фільмокрай
Відео Гуртом - фільмокрай


З нами з: 02.11.08
Востаннє: 07.12.16
Повідомлень: 5961

2011-03-12 20:01  
gnommak написано:
Зато розмір в 17 мегабайт на 24 хв аніме рекорд

Краще записати той 2х-гіговий мпег, обрізати зайве (рекламу, тощо) і скодувати з максимальною якістю.
Dvd-master 
Відео Гуртом - запис з ТБ
Відео Гуртом - запис з ТБ


З нами з: 13.11.10
Востаннє: 09.12.16
Повідомлень: 250

2011-03-13 02:49  
gnommak і abodnya

Ви записуете з тб мабудь через інші програми?
gnommak 
VIP


З нами з: 20.10.07
Востаннє: 19.11.16
Повідомлень: 1953

2011-03-13 12:55  
Dvd-master написано:
Ви записуете з тб мабудь через інші програми?

Я записую через Sound Studio. Але я на Mac працюю Happy
Але я впевнений що альтернатива на Windows просто повинна бути.
abodnya 
Відео Гуртом - фільмокрай
Відео Гуртом - фільмокрай


З нами з: 02.11.08
Востаннє: 07.12.16
Повідомлень: 5961

2011-03-13 13:18  
В мене в самого IPTV немає) Я записую з SAT прогою dvbdream та з ТБ прогою AverTV. Та з айпітіві найкращий варіант - це запис прогою IPTVPlayer
Dvd-master 
Відео Гуртом - запис з ТБ
Відео Гуртом - запис з ТБ


З нами з: 13.11.10
Востаннє: 09.12.16
Повідомлень: 250

2011-05-25 18:59  
abodnya написано:
З них вже треба робити ріпи. Ось гарна інструкція - http://toloka.to/t18490


Інструкція гарна, але я по неї зміг зменшувати запис з К1 з 1, 3 гб до 700 мб (для одніеї серії серіалу це все одно забагато). Невже до нормального розміру файл можна довести, тільки втрачаючи якість?

А ось запис з Гумор ТБ не подаеться ніяк. Запис 20 хв важить 600 мб. Коли оброблюю по Інструкціі він чомусь навпаки збільшуеться до 800 мб. Навіть якщо просто його стискую у Virtualdub у Mpeg4 він все одно збільшуеться до 800 мб.
Dvd-master 
Відео Гуртом - запис з ТБ
Відео Гуртом - запис з ТБ


З нами з: 13.11.10
Востаннє: 09.12.16
Повідомлень: 250

2011-05-26 09:52  
Додаю звіт від Media Info про запис з Гумор ТБ. може це якось допоможе зрозуміти як його наліпше перетиснути
Видео
Идентификатор : 224 (0xE0)
Формат : MPEG Video
Версия формата : Version 2
Профиль формата : [email protected]
Параметр BVOP формата : Да
Параметр матрицы формата : По умолчанию
Параметры GOP формата : M=3, N=24
Продолжительность : 22 м.
Вид битрейта : Постоянный
Битрейт : 3701 Кбит/сек
Ширина : 720 пикс.
Высота : 576 пикс.
Соотношение сторон : 4:3
Частота кадров : 25,000 кадр/сек
Стандарт вещания : PAL
Цветовое пространство : YUV
Подвыборка цветности : 4:2:0
Битовая глубина : 8 бит
Тип развёртки : Чересстрочная
Порядок развёртки : Верхнее поле первое
Метод сжатия : С потерями
Бит/(Пиксели*Кадры) : 0.357
Размер потока : 597 Мбайт (95%)

Аудио
Идентификатор : 192 (0xC0)
Формат : MPEG Audio
Версия формата : Version 1
Профиль формата : Layer 2
Продолжительность : 22 м.
Вид битрейта : Постоянный
Битрейт : 128 Кбит/сек
Канал(ы) : 1 канал
Частота : 48,0 КГц
Метод сжатия : С потерями
Задержка видео : -80 мс.
Размер потока : 20,8 Мбайт (3%)
Dvd-master 
Відео Гуртом - запис з ТБ
Відео Гуртом - запис з ТБ


З нами з: 13.11.10
Востаннє: 09.12.16
Повідомлень: 250

2011-05-28 22:51  
Варіантів зменшення розміру (залишаючи якість) більш немае?
Ваш часовий пояс: GMT + 2 Години

Нова тема   Відповісти