Завантажити та скачати торренти українською


VA - Забава на панській горі 2 (2006) [FLAC] | Folk

Нові коментарі

Нова тема   Відповісти
Автор Повідомлення
Ромася 
Новенький


З нами з: 21.12.10
Востаннє: 31.10.16
Повідомлень: 3

2011-03-08 11:42  
VA - Забава на панській горі 2 (2006) [FLAC] | Folk



Стиль: Folk
Країна, місто: Україна, Львів
Видавець: студія "Фенікс", ТОВ "Ліда"
Виконавці:
Аранжування:

А. Кок (2,3,5,9,11-15)
Мих. Стародуб (1,4,6-8,10)
Музика:

А. Кок (2,3,5,13,15)
Мих. Стародуб (6,8,10)
М. Мазур (11)
народна (1,4,7,9,12,14)
Слова:

Марія Стародуб (2,3,5,6,8,13,15)
Міша Стародуб (10)
Микола Мазур (11)
народні (1,4,7,9,12,14)
Акордеон: Андрій Кок
Гітара: Міша Стародуб

Пісні:
    1. Ірина
    2. Признач мені побачення
    3. Калинова мрія
    4. Марія
    5. Не залишай
    6. Я до війська не піду
    7. Ні Янічка ні Павлічка
    8. Зима
    9. Два дубки
    10. Не плач, кохана
    11. О, моя любов
    12. Ой чий то кінь стоїть
    13. Біда
    14. Бодай ся когут знудив
    15. Чия вина
    16. Зрадлива казка
    17. Bonus. Ірина (-)
лог
Exact Audio Copy V1.0 beta 1 from 15. November 2010

EAC extraction logfile from 8. March 2011, 11:16

Various / Zabava na panskii gori 2

Used drive : TSSTcorpDVD+-RW TS-L632H Adapter: 0 ID: 0

Read mode : Secure
Utilize accurate stream : Yes
Defeat audio cache : Yes
Make use of C2 pointers : No

Read offset correction : 6
Overread into Lead-In and Lead-Out : No
Fill up missing offset samples with silence : Yes
Delete leading and trailing silent blocks : No
Null samples used in CRC calculations : Yes
Used interface : Native Win32 interface for Win NT & 2000

Used output format : Internal WAV Routines
Sample format : 44.100 Hz; 16 Bit; Stereo

TOC of the extracted CD

Track | Start | Length | Start sector | End sector
---------------------------------------------------------
1 | 0:00.00 | 4:43.74 | 0 | 21298
2 | 4:43.74 | 3:52.42 | 21299 | 38740
3 | 8:36.41 | 4:19.25 | 38741 | 58190
4 | 12:55.66 | 4:56.13 | 58191 | 80403
5 | 17:52.04 | 4:21.06 | 80404 | 99984
6 | 22:13.10 | 4:38.01 | 99985 | 120835
7 | 26:51.11 | 4:42.73 | 120836 | 142058
8 | 31:34.09 | 4:14.24 | 142059 | 161132
9 | 35:48.33 | 4:03.73 | 161133 | 179430
10 | 39:52.31 | 4:48.49 | 179431 | 201079
11 | 44:41.05 | 5:12.31 | 201080 | 224510
12 | 49:53.36 | 3:32.01 | 224511 | 240411
13 | 53:25.37 | 4:49.01 | 240412 | 262087
14 | 58:14.38 | 4:14.49 | 262088 | 281186
15 | 62:29.12 | 4:33.01 | 281187 | 301662
16 | 67:02.13 | 4:52.00 | 301663 | 323562
17 | 71:54.13 | 4:41.02 | 323563 | 344639

Range status and errors

Selected range

Filename C:\Documents and Settings\Администратор\Мои документы\Мої роздачі\Various - Zabava na panskii gori 2.wav

Peak level 100.0 %
Extraction speed 0.3 X
Range quality 100.0 %
Test CRC 89B2D7B7
Copy CRC DE7A403C
Copy OK

No errors occurred

AccurateRip summary

Track 1 not present in database
Track 2 not present in database
Track 3 not present in database
Track 4 not present in database
Track 5 not present in database
Track 6 not present in database
Track 7 not present in database
Track 8 not present in database
Track 9 not present in database
Track 10 not present in database
Track 11 not present in database
Track 12 not present in database
Track 13 not present in database
Track 14 not present in database
Track 15 not present in database
Track 16 not present in database
Track 17 not present in database

None of the tracks are present in the AccurateRip database

End of status report
Тривалість: 01:11:54
Мова: українська
Аудіо-кодек: FLAC
Бітрейт: 973 кб/с
Джерело: CD


Срібний реліз (на рейтинг впливає 50% завантаженого)
 Трекер:    Зареєстрований   

Завантажити / скачати українську музику



відео для новачків



 Зареєстрований:   2011-03-08 11:42
 Розмір:   537 MB 
 Оцінка музики:   10/10 (Голосів: 7)
   
ssTAss 
Модератор музики


З нами з: 05.07.08
Востаннє: 08.12.16
Повідомлень: 10947

2011-03-08 17:07  
додайте, будь-ласка, вміст лог-файлу під спойлер
Ромася 
Новенький


З нами з: 21.12.10
Востаннє: 31.10.16
Повідомлень: 3

2011-03-08 20:33  
Skiff
Дякую за допомогу в оформленні релізу!

Bober83 
Новенький


З нами з: 23.04.11
Востаннє: 04.11.16
Повідомлень: 13

2012-12-07 00:21  
Скажіть будьласка, чи е в когось альбом "Андрій Кок - Весілля на панській горі" в lossless якості? Якщо е будьласка викладіть.
ярий тверезенник 
VIP


З нами з: 29.01.12
Востаннє: 07.12.16
Повідомлень: 1594

2013-01-06 21:00  
Андрій Кок - Весілля на панській горі - http://toloka.to/t41994#519509
Ваш часовий пояс: GMT + 2 Години

Нова тема   Відповісти