Завантажити та скачати торренти українською


Наталка Карпа - Історія (2007) [FLAC] | Pop

Нові коментарі

Нова тема   Відповісти
Останній раз роздавалося Myfordownloads (2016-10-09)
Автор Повідомлення
Fritz 
Частий відвідувач


З нами з: 27.04.09
Востаннє: 31.05.15
Повідомлень: 32

2011-03-07 14:54  
Наталка Карпа - Історія (2007) [FLAC] | Pop



Стиль: Pop
Країна, місто: Україна (Добромиль, Львів, Київ)
Сайти: Офіційний сайт
Видавець: "Odyssey Company"
Виконавці:
Наталка Карпа
Пісні:

    1.Вперше
    2.Твій голос
    3.Давай танцюй
    4.Опера кохання
    5.Моє серце
    6.Я для тебе живу
    7.Білі ночі
    8.Час надій (feat. MAXIMUS)
    9.Анаконда
    10.Шокотерапія
    11.А калина не верба (ремікс)
    12.Ми – історія
    13.Ми – історія (ремікс)
    14.Ми – історія (ремікс)
    відео: (відсутнє в роздачі)
    15. Ми – історія
    16. Вперше
    17. А калина не верба

Тривалість: 00:52:56
Мова: українська
Аудіо-кодек: FLAC
Бітрейт: 1411 Kbps
Джерело: Інше
Додаткова інформація:
"EAC"

Exact Audio Copy V0.99 prebeta 5 from 4. May 2009

EAC extraction logfile from 7. March 2011, 8:31

Наталка Карпа / Історія

Used drive : ASUS DRW-1814BLT Adapter: 0 ID: 0

Read mode : Secure
Utilize accurate stream : Yes
Defeat audio cache : Yes
Make use of C2 pointers : No

Read offset correction : 6
Overread into Lead-In and Lead-Out : No
Fill up missing offset samples with silence : Yes
Delete leading and trailing silent blocks : No
Null samples used in CRC calculations : Yes
Used interface : Native Win32 interface for Win NT & 2000
Gap handling : Appended to previous track

Used output format : User Defined Encoder
Selected bitrate : 320 kBit/s
Quality : High
Add ID3 tag : No
Command line compressor : C:\Program Files (x86)\Exact Audio Copy\Flac\flac.exe
Additional command line options : -8 -V -T "ARTIST=%a" -T "TITLE=%t" -T "ALBUM=%g" -T "DATE=%y" -T "TRACKNUMBER=%n" -T "GENRE=%m" -T "COMMENT=EAC FLAC -8" %s

TOC of the extracted CD

Track | Start | Length | Start sector | End sector
---------------------------------------------------------
1 | 0:00.00 | 4:18.64 | 0 | 19413
2 | 4:18.64 | 3:50.04 | 19414 | 36667
3 | 8:08.68 | 3:58.25 | 36668 | 54542
4 | 12:07.18 | 3:30.71 | 54543 | 70363
5 | 15:38.14 | 3:16.61 | 70364 | 85124
6 | 18:55.00 | 3:38.00 | 85125 | 101474
7 | 22:33.00 | 4:17.62 | 101475 | 120811
8 | 26:50.62 | 4:24.71 | 120812 | 140682
9 | 31:15.58 | 3:42.39 | 140683 | 157371
10 | 34:58.22 | 3:20.01 | 157372 | 172372
11 | 38:18.23 | 3:48.28 | 172373 | 189500
12 | 42:06.51 | 3:53.20 | 189501 | 206995
13 | 45:59.71 | 3:53.43 | 206996 | 224513
14 | 49:53.39 | 3:27.22 | 224514 | 240060
15 | 55:52.61 | 23:11.02 | 251461 | 355787

Track 1

Filename E:\waffles.fm\Наталка Карпа - Історія (2007)\01. Наталка Карпа – Вперше.wav

Pre-gap length 0:00:02.00

Peak level 98.8 %
Track quality 100.0 %
Test CRC 0E543C97
Copy CRC 0E543C97
Track not present in AccurateRip database
Copy OK

Track 2

Filename E:\waffles.fm\Наталка Карпа - Історія (2007)\02. Наталка Карпа – Твій голос.wav

Pre-gap length 0:00:02.00

Peak level 98.8 %
Track quality 100.0 %
Test CRC B6D79FCC
Copy CRC B6D79FCC
Track not present in AccurateRip database
Copy OK

Track 3

Filename E:\waffles.fm\Наталка Карпа - Історія (2007)\03. Наталка Карпа – Давай танцюй.wav

Pre-gap length 0:00:02.00

Peak level 98.8 %
Track quality 100.0 %
Test CRC C0EC69AF
Copy CRC C0EC69AF
Track not present in AccurateRip database
Copy OK

Track 4

Filename E:\waffles.fm\Наталка Карпа - Історія (2007)\04. Наталка Карпа – Опера кохання.wav

Pre-gap length 0:00:02.00

Peak level 98.8 %
Track quality 100.0 %
Test CRC 33402CA7
Copy CRC 33402CA7
Track not present in AccurateRip database
Copy OK

Track 5

Filename E:\waffles.fm\Наталка Карпа - Історія (2007)\05. Наталка Карпа – Моє серце.wav

Pre-gap length 0:00:02.00

Peak level 96.6 %
Track quality 100.0 %
Test CRC A5ADA3AC
Copy CRC A5ADA3AC
Track not present in AccurateRip database
Copy OK

Track 6

Filename E:\waffles.fm\Наталка Карпа - Історія (2007)\06. Наталка Карпа – Я для тебе живу.wav

Pre-gap length 0:00:02.00

Peak level 96.6 %
Track quality 100.0 %
Test CRC 5A1E3D1B
Copy CRC 5A1E3D1B
Track not present in AccurateRip database
Copy OK

Track 7

Filename E:\waffles.fm\Наталка Карпа - Історія (2007)\07. Наталка Карпа – Білі ночі.wav

Pre-gap length 0:00:02.00

Peak level 98.8 %
Track quality 100.0 %
Test CRC 8E529DF8
Copy CRC 8E529DF8
Track not present in AccurateRip database
Copy OK

Track 8

Filename E:\waffles.fm\Наталка Карпа - Історія (2007)\08. Наталка Карпа – Час надій (feat. MAXIMUS).wav

Pre-gap length 0:00:02.00

Peak level 96.6 %
Track quality 100.0 %
Test CRC 0F010218
Copy CRC 0F010218
Track not present in AccurateRip database
Copy OK

Track 9

Filename E:\waffles.fm\Наталка Карпа - Історія (2007)\09. Наталка Карпа – Анаконда.wav

Pre-gap length 0:00:02.00

Peak level 98.8 %
Track quality 100.0 %
Test CRC 2465E906
Copy CRC 2465E906
Track not present in AccurateRip database
Copy OK

Track 10

Filename E:\waffles.fm\Наталка Карпа - Історія (2007)\10. Наталка Карпа – Шокотерапія.wav

Pre-gap length 0:00:02.00

Peak level 96.6 %
Track quality 100.0 %
Test CRC 6C89D1FB
Copy CRC 6C89D1FB
Track not present in AccurateRip database
Copy OK

Track 11

Filename E:\waffles.fm\Наталка Карпа - Історія (2007)\11. Наталка Карпа – А калина не верба (ремікс).wav

Pre-gap length 0:00:02.00

Peak level 96.6 %
Track quality 100.0 %
Test CRC 3C68457D
Copy CRC 3C68457D
Track not present in AccurateRip database
Copy OK

Track 12

Filename E:\waffles.fm\Наталка Карпа - Історія (2007)\12. Наталка Карпа – Ми історія.wav

Pre-gap length 0:00:02.00

Peak level 96.6 %
Track quality 100.0 %
Test CRC 0C2B062A
Copy CRC 0C2B062A
Track not present in AccurateRip database
Copy OK

Track 13

Filename E:\waffles.fm\Наталка Карпа - Історія (2007)\13. Наталка Карпа – Ми історія (ремікс 1) (В. Лисиця).wav

Pre-gap length 0:00:02.00

Peak level 96.6 %
Track quality 100.0 %
Test CRC 7422F211
Copy CRC 7422F211
Track not present in AccurateRip database
Copy OK

Track 14

Filename E:\waffles.fm\Наталка Карпа - Історія (2007)\14. Наталка Карпа – Ми історія (ремікс 2) (В. Лисиця).wav

Pre-gap length 0:00:02.00

Peak level 96.6 %
Track quality 100.0 %
Test CRC FCB356B1
Copy CRC FCB356B1
Track not present in AccurateRip database
Copy OK

None of the tracks are present in the AccurateRip database

No errors occurred

End of status report
"Audiochecker"

AUDIOCHECKER v2.0 beta (build 457) - by Dester - [email protected]
~~~~~~~~~~~~~~~~~~~~~~~~~~~~~~~~~~
-=== DO NOT EDIT THIS FILE! ===-

Path: ...\Наталка Карпа - Історія (2007)

01 -=- 01. Наталка Карпа – Вперше.flac -=- CDDA (100%)
02 -=- 02. Наталка Карпа – Твій голос.flac -=- CDDA (100%)
03 -=- 03. Наталка Карпа – Давай танцюй.flac -=- CDDA (99%)
04 -=- 04. Наталка Карпа – Опера кохання.flac -=- CDDA (100%)
05 -=- 05. Наталка Карпа – Моє серце.flac -=- CDDA (100%)
06 -=- 06. Наталка Карпа – Я для тебе живу.flac -=- CDDA (100%)
07 -=- 07. Наталка Карпа – Білі ночі.flac -=- CDDA (100%)
08 -=- 08. Наталка Карпа – Час надій (feat. MAXIMUS).flac -=- CDDA (100%)
09 -=- 09. Наталка Карпа – Анаконда.flac -=- CDDA (100%)
10 -=- 10. Наталка Карпа – Шокотерапія.flac -=- CDDA (100%)
11 -=- 11. Наталка Карпа – А калина не верба (ремікс).flac -=- CDDA (100%)
12 -=- 12. Наталка Карпа – Ми історія.flac -=- CDDA (100%)
13 -=- 13. Наталка Карпа – Ми історія (ремікс 1) (В. Лисиця).flac -=- CDDA (94%)
14 -=- 14. Наталка Карпа – Ми історія (ремікс 2) (В. Лисиця).flac -=- CDDA (99%)

Summary 99,43% CDDA

19509172
"Спектр"

У комплекті: Відскановані обкладинки та диск, лог ЕАС, файл CUE, плейлист M3U, лог Audiochecker-а, спектрограма.


Якщо Ви справді бажаєте підтримати українське - після прослуховування, якщо музика вам сподобалась, придбайте ліцензійний диск. Підтримаймо вітчизняних виконавців!


Срібний реліз (на рейтинг впливає 50% завантаженого)
 Трекер:    Зареєстрований   

Завантажити / скачати українську музику



відео для новачків



 Зареєстрований:   2011-03-07 14:54
 Розмір:   403 MB 
 Оцінка музики:   10/10 (Голосів: 8)
   
ssTAss 
Модератор музики


З нами з: 05.07.08
Востаннє: 06.12.16
Повідомлень: 10946

2011-03-08 01:34  
в альбомі було присутнє ще відео.. немає у Вас?
в трек-лісті треба дописати
відео: (відсутнє в роздачі)
15. Ми – історія
16. Вперше
17. А калина не верба

Tarasyk 
Відео Гуртом - фільмокрай
Відео Гуртом - фільмокрай


З нами з: 26.08.09
Востаннє: 28.11.16
Повідомлень: 5972

2011-03-10 18:55  
Хм... Якщо відео нема, то чому ЕАС пише:
Fritz написано:
15 | 55:52.61 | 23:11.02 | 251461 | 355787

?
Бачу, що в роздачі немає, але ж що то за 15-й трек з такою тривалістю?

ssTAss 
Модератор музики


З нами з: 05.07.08
Востаннє: 06.12.16
Повідомлень: 10946

2011-03-10 18:58  
Tarasyk написано:
Якщо відео нема, то чому ЕАС пише:

все нормально
Tarasyk написано:
що то за 15-й трек з такою тривалістю?

три кліпи

mr.killer 
Свій


З нами з: 11.08.10
Востаннє: 03.12.16
Повідомлень: 146

2016-08-09 08:46  
а де кліпи подівалися з диску, чому не додали в роздачу?
Ваш часовий пояс: GMT + 2 Години

Нова тема   Відповісти