Завантажити та скачати торренти українською


Natural Spirit - Ціна свободи (2011) [FLAC] | Pagan/Folk Metal

Нові коментарі

Нова тема   Відповісти
Останній раз роздавалося rusych_ (2012-03-21)
Автор Повідомлення
Swirl 
Оцифрування книг Гуртом
Оцифрування книг Гуртом


З нами з: 12.10.09
Востаннє: 24.02.15
Повідомлень: 495

2011-03-05 18:22  
Natural Spirit - Ціна свободи (2011) [FLAC] | Pagan/Folk Metal



Стиль: Pagan/Folk Metal
Країна, місто: Україна, Київ
Сайти: Офіційний сайт

Видавець: Stormspell
Виконавці:
Олег Кірієнко - гітара, вокал
Вадим Мущенко - бас
Антоніна Вінник - вокал
Володимир Овчаров - гітара
Миколай Нежура - ударні
Пісні:
    01 - Гайдамаки
    02 - Невернеться
    03 - Жировик
    04 - Ціна Свободи
    05 - 33 (Жовтий Князь)
    06 - Ворожба зимнего солнца
    07 - Ирий-сад
    08 - За смородиной рекой
    09 - Earth, wind, fire and blood (Gods Tower cover)

Тривалість: 00:38:50
Мова: українська 1-5, російська 6-8, 9 - англійська
Аудіо-кодек: FLAC
Бітрейт: 1047 кб/с
Джерело: інтернет
log
Exact Audio Copy V0.99 prebeta 5 from 4. May 2009

EAC extraction logfile from 4. March 2011, 22:39

Natural Spirit / Цiна Свободи (The price of freedom)

Used drive : Optiarc DVD RW AD-5240S Adapter: 0 ID: 0

Read mode : Secure
Utilize accurate stream : Yes
Defeat audio cache : Yes
Make use of C2 pointers : No

Read offset correction : 48
Overread into Lead-In and Lead-Out : No
Fill up missing offset samples with silence : Yes
Delete leading and trailing silent blocks : No
Null samples used in CRC calculations : Yes
Used interface : Native Win32 interface for Win NT & 2000

Used output format : User Defined Encoder
Selected bitrate : 128 kBit/s
Quality : High
Add ID3 tag : Yes
Command line compressor : C:\Program Files\Exact Audio Copy\FLAC\flac.exe
Additional command line options : -8 -V -T "ARTIST=%a" -T "TITLE=%t" -T "ALBUM=%g" -T "DATE=%y" -T "TRACKNUMBER=%n" -T "GENRE=%m" -T "COMMENT=EAC FLAC -8" %s
Use compression offset : 0

TOC of the extracted CD

Track | Start | Length | Start sector | End sector
---------------------------------------------------------
1 | 0:00.00 | 4:20.37 | 0 | 19536
2 | 4:20.37 | 4:48.35 | 19537 | 41171
3 | 9:08.72 | 3:23.10 | 41172 | 56406
4 | 12:32.07 | 4:15.69 | 56407 | 75600
5 | 16:48.01 | 4:35.13 | 75601 | 96238
6 | 21:23.14 | 3:47.18 | 96239 | 113281
7 | 25:10.32 | 5:11.03 | 113282 | 136609
8 | 30:21.35 | 4:41.48 | 136610 | 157732
9 | 35:03.08 | 3:46.64 | 157733 | 174746

Range status and errors

Selected range

Filename F:\Natural Spirit\lossless\2011 - Цiна Свободи (The price of freedom)\Natural Spirit - Цiна Свободи (The price of freedom).wav

Peak level 96.6 %
Range quality 100.0 %
Test CRC 05FD5B87
Copy CRC 05FD5B87
Copy OK

No errors occurred

AccurateRip summary

Track 1 not present in database
Track 2 not present in database
Track 3 not present in database
Track 4 not present in database
Track 5 not present in database
Track 6 not present in database
Track 7 not present in database
Track 8 not present in database
Track 9 not present in database

None of the tracks are present in the AccurateRip database

End of status report



Якщо Ви справді бажаєте підтримати українське - після прослуховування, якщо музика вам сподобалась, придбайте ліцензійний диск. Підтримаймо вітчизняних виконавців!


Срібний реліз (на рейтинг впливає 50% завантаженого)
 Трекер:    Зареєстрований   

Завантажити / скачати українську музику



відео для новачків



 Зареєстрований:   2011-03-05 18:22
 Розмір:   417 MB 
 Оцінка музики:   8.2/10 (Голосів: 9)
   
Ваш часовий пояс: GMT + 2 Години

Нова тема   Відповісти