Завантажити та скачати торренти українською


Національний оркестр народних інструментів України - Мелодії України (10 альбомів) (2001-2011) [FLAC] | Folk / Instrumental

Нові коментарі

Нова тема   Відповісти
Автор Повідомлення
ssTAss 
Модератор музики


З нами з: 05.07.08
Востаннє: 03.12.16
Повідомлень: 10930

2011-03-05 01:07  
Національний оркестр народних інструментів України - Мелодії України (10 альбомів) (2001-2011) [FLAC] | Folk / Instrumental



Стиль: Folk, Instrumental
Країна, місто: Україна, Київ
Сайти: Офіційний сайт
Видавець: Rostok Records
Виконавці:
Національний Академічний Оркестр Народних Інструментів України
Пісні:
    2001 - Мелодії України. Частина 1-ша

    Пісні:
      01. М. Лисенко - Рапсодія №2 (соліст Г.Агратіна, цимбали)
      02. М. Завадський - Козак
      03. М. Різоль Дощик
      04. М. Калачевський - Романс
      05. Д. Деминчук - Полька (ансамбль зозуль)
      06. С. Орел - Гуцульська фантазія
      07. І. Іващенко - Безкінечна
      08. І. Шамо - Донецька кадриль
      09. В. Гуцал - Троїсті музики
      10. А. Гнатишин - Метелиця
      11. Д. Попичук - Фантазія для цимбал з оркестром
      12. Я. Ляпинський - Веснянка (ансамбль сопілок)
      13. М. Скорик - Мелодія
      14. Ю. Алжнеев - Дергунець
      15. В. Гекер - Буковинські Козачки

    Тривалість: 01:07:17
    Бітрейт: 714 кб/с
    log

    Exact Audio Copy V0.99 prebeta 4 from 23. January 2008

    Отчёт EAC об извлечении, выполненном 26. июня 2008, 8:14

    Національний оркестр народних інструментів України / Мелодії України vol.1

    Дисковод: ASUS DRW-2014L1T Adapter: 2 ID: 0

    Режим чтения : Достоверность
    Использование точного потока : Да
    Отключение кэша аудио : Да
    Использование указателей C2 : Нет

    Коррекция смещения при чтении : 6
    Способность читать области Lead-in и Lead-out : Нет
    Заполнение пропущенных сэмплов тишиной : Да
    Удаление блоков с тишиной в начале и конце : Нет
    При вычислениях CRC использовались нулевые сэмплы : Нет
    Интерфейс : Установленный внешний ASPI-интерфейс

    Выходной формат : Внутренние WAV-операции
    Формат сэмплов : 44.100 Гц; 16 бит; стерео

    TOC извлечённого CD

    Трек | Старт | Длительность | Начальный сектор | Конечный сектор
    ---------------------------------------------------------------------
    1 | 0:00.00 | 7:11.02 | 0 | 32326
    2 | 7:11.02 | 2:32.74 | 32327 | 43800
    3 | 9:44.01 | 4:40.27 | 43801 | 64827
    4 | 14:24.28 | 3:50.57 | 64828 | 82134
    5 | 18:15.10 | 1:34.73 | 82135 | 89257
    6 | 19:50.08 | 5:16.26 | 89258 | 112983
    7 | 25:06.34 | 4:04.19 | 112984 | 131302
    8 | 29:10.53 | 3:52.64 | 131303 | 148766
    9 | 33:03.42 | 10:31.24 | 148767 | 196115
    10 | 43:34.66 | 3:32.58 | 196116 | 212073
    11 | 47:07.49 | 4:27.71 | 212074 | 232169
    12 | 51:35.45 | 3:10.42 | 232170 | 246461
    13 | 54:46.12 | 4:07.12 | 246462 | 264998
    14 | 58:53.24 | 4:11.63 | 264999 | 283886
    15 | 63:05.12 | 4:12.08 | 283887 | 302794

    Характеристики диапазона извлечения и сообщения об ошибках

    Выбранный диапазон

    Имя файла D:\Melodies Ukraine\Melodies Ukraine 1\Національний оркестр народних інструментів України - Мелодії України vol.1.wav

    Пиковый уровень 97.1 %
    Качество диапазона 99.9 %
    CRC копии F6E37D78
    Копирование... OK

    Ошибок не произошло

    Конец отчёта
    fooCDtect
    fooCDtect - foobar2000 + auCDtect, baralgin.

    auCDtect: CD records authenticity detector, version 0.8.2
    Copyright (c) 2004 Oleg Berngardt. All rights reserved.
    Copyright (c) 2004 Alexander Djourik. All rights reserved.

    mode: 0

    =======================================================
    Track: 01 - М. Лисенко - Рапсодія №2 (соліст Г.Агратіна, цимбали)
    Quality: CDDA, 100%
    =======================================================
    Track: 02 - М. Завадський - Козак
    Quality: CDDA, 99%
    =======================================================
    Track: 03 - М. Різоль Дощик
    Quality: CDDA, 100%
    =======================================================
    Track: 04 - М. Калачевський - Романс
    Quality: CDDA, 100%
    =======================================================
    Track: 05 - Д. Деминчук - Полька (ансамбль зозуль)
    Quality: CDDA, 62%
    =======================================================
    Track: 06 - С. Орел - Гуцульська фантазія
    Quality: CDDA, 100%
    =======================================================
    Track: 07 - І. Іващенко - Безкінечна
    Quality: CDDA, 100%
    =======================================================
    Track: 08 - І. Шамо - Донецька кадриль
    Quality: CDDA, 100%
    =======================================================
    Track: 09 - В. Гуцал - Троїсті музики
    Quality: CDDA, 100%
    =======================================================
    Track: 10 - А. Гнатишин - Метелиця
    Quality: CDDA, 100%
    =======================================================
    Track: 11 - Д. Попичук - Фантазія для цимбал з оркестром
    Quality: CDDA, 100%
    =======================================================
    Track: 12 - Я. Ляпинський - Веснянка (ансамбль сопілок)
    Quality: MPEG, 89%
    =======================================================
    Track: 13 - М. Скорик - Мелодія
    Quality: CDDA, 100%
    =======================================================
    Track: 14 - Ю. Алжнеев - Дергунець
    Quality: CDDA, 99%
    =======================================================
    Track: 15 - В. Гекер - Буковинські Козачки
    Quality: CDDA, 100%
    =======================================================
    2002 - Мелодії України. Частина 2-га

    Пісні:
      01. Закарпатські вишиванки - опр. С. Мартона
      02. Фантазія на тему укр. нар. пісні "Розпрягайте, хлопці, коні" - опр. В. Новікова
      03. Гуцульські наспіви - опр. Т. Ремешила (солістка Д. Агратіна (скрипка))
      04. Козачок - опр. І. Іващенка
      05. Свято на Буковині - опр. В. Должикова
      06. Гопак - опр. К. Мяскова
      07. Укр. нар. пісня "Ходила я по садочку" - опр. В. Гуцала (ансамбль зозуль)
      08. Плескач - опр. Г. Верьовки
      09. Терноватська полька опр. Я. Орлова (ансамбль сопілок)
      10. Циганіада - муз. А.Гайденка (соліст Г.Агратіна ( цимбали))
      11. Фантазія на тему укр. нар. пісні "Їхав козак містом" - опр. В. Марунича
      12. Полька - опр. І.Іващенка
      13. Українська в'язанка - опр. Ю. Алжнєва

    Тривалість: 00:57:43
    Бітрейт: 695 кб/с
    log

    Exact Audio Copy V0.99 prebeta 5 from 4. May 2009

    Отчёт EAC об извлечении, выполненном 22. апреля 2010, 15:35

    Мелодии Украины / Національний оркестр народних інструментів України

    Дисковод: Optiarc DVD RW AD-7580S Adapter: 1 ID: 0

    Режим чтения : Достоверность
    Использование точного потока : Да
    Отключение кэша аудио : Да
    Использование указателей C2 : Нет

    Коррекция смещения при чтении : 48
    Способность читать области Lead-in и Lead-out : Нет
    Заполнение пропущенных сэмплов тишиной : Да
    Удаление блоков с тишиной в начале и конце : Нет
    При вычислениях CRC использовались нулевые сэмплы : Да
    Интерфейс : Встроенный Win32-интерфейс для Win NT/2000

    Выходной формат : Внутренние WAV-операции
    Формат сэмплов : 44.100 Гц; 16 бит; стерео

    TOC извлечённого CD

    Трек | Старт | Длительность | Начальный сектор | Конечный сектор
    ---------------------------------------------------------------------
    1 | 0:00.00 | 5:36.19 | 0 | 25218
    2 | 5:36.19 | 3:28.53 | 25219 | 40871
    3 | 9:04.72 | 6:18.51 | 40872 | 69272
    4 | 15:23.48 | 2:10.05 | 69273 | 79027
    5 | 17:33.53 | 5:34.06 | 79028 | 104083
    6 | 23:07.59 | 3:53.22 | 104084 | 121580
    7 | 27:01.06 | 2:30.47 | 121581 | 132877
    8 | 29:31.53 | 1:58.42 | 132878 | 141769
    9 | 31:30.20 | 1:54.26 | 141770 | 150345
    10 | 33:24.46 | 11:02.45 | 150346 | 200040
    11 | 44:27.16 | 2:45.45 | 200041 | 212460
    12 | 47:12.61 | 3:34.31 | 212461 | 228541
    13 | 50:47.17 | 6:55.68 | 228542 | 259734

    Характеристики диапазона извлечения и сообщения об ошибках

    Выбранный диапазон

    Имя файла D:\Music\Мелодії України - 3\Мелодии Украины - Національний оркестр народних інструментів України.wav

    Пиковый уровень 98.9 %
    Качество диапазона 100.0 %
    CRC копии 9F6E6F35
    Копирование... OK

    Ошибок не произошло

    Конец отчёта
    fooCDtect

    fooCDtect - foobar2000 + auCDtect, baralgin.

    auCDtect: CD records authenticity detector, version 0.8.2
    Copyright (c) 2004 Oleg Berngardt. All rights reserved.
    Copyright (c) 2004 Alexander Djourik. All rights reserved.

    mode: 0

    =======================================================
    Track: 01 - Закарпатські вишиванки - опр. С. Мартона
    Quality: CDDA, 100%
    =======================================================
    Track: 02 - Фантазія на тему укр. нар. пісні 'Розпрягайте, хлопці, коні' - опр. В. Новікова
    Quality: CDDA, 100%
    =======================================================
    Track: 03 - Гуцульські наспіви - опр. Т. Ремешила (солістка Д. Агратіна (скрипка))
    Quality: CDDA, 100%
    =======================================================
    Track: 04 - Козачок - опр. І. Іващенка
    Quality: CDDA, 100%
    =======================================================
    Track: 05 - Свято на Буковині - опр. В. Должикова
    Quality: CDDA, 100%
    =======================================================
    Track: 06 - Гопак - опр. К. Мяскова
    Quality: CDDA, 99%
    =======================================================
    Track: 07 - Укр. нар. пісня 'Ходила я по садочку' - опр. В. Гуцала (ансамбль зозуль)
    Quality: unknown
    =======================================================
    Track: 08 - Плескач - опр. Г. Верьовки
    Quality: CDDA, 100%
    =======================================================
    Track: 09 - Терноватська полька опр. Я. Орлова (ансамбль сопілок)
    Quality: CDDA, 85%
    =======================================================
    Track: 10 - Циганіада - муз. А.Гайденка (соліст Г.Агратіна ( цимбали))
    Quality: CDDA, 100%
    =======================================================
    Track: 11 - Фантазія на тему укр. нар. пісні 'Їхав козак містом' - опр. В. Марунича
    Quality: CDDA, 100%
    =======================================================
    Track: 12 - Полька - опр. І.Іващенка
    Quality: CDDA, 100%
    =======================================================
    Track: 13 - Українська в'язанка - опр. Ю. Алжнєва
    Quality: CDDA, 100%
    =======================================================
    2002 - Мелодії України. Частиня 3-тя

    Пісні:
      01. Гопак опр. Я. Орлова
      02. Фантазія Для Бандури З Оркестром На Тему Української Народної Пісні "Вечір На Дворі" муз. К. М'яскова, солист П. Чухрай
      03. Українські Візерунки опр. Д. Попичук, соліст Г. Агратина (свиріль)
      04. Фантазія Для Оркестру На Тему Української Народної Пісні "Чуєш, Брате Мій" опр. В. Польового
      05. Старовинна Полька муз. народна
      06. Ліричний Танок муз. С. Гулака - Артемовського
      07. Подільський Козачок муз. І. Вимера
      08. Закарпатський Весільний Танок "Березнянка" соліст Г. Агратіна
      09. Танцювальні Награвання муз. В. Гуцала
      10. Полтавський Козачок муз. Я. Лапинського
      11. Святковий Марш опр. В. Гуцала
      12. Запорізький Марш опр. В. Гуцала

    Тривалість: 00:45:01
    Бітрейт: 778 кб/с
    log

    Exact Audio Copy V0.99 prebeta 5 from 4. May 2009

    Отчёт EAC об извлечении, выполненном 22. апреля 2010, 17:03

    Народне / Мелодii Украiни 3

    Дисковод: Optiarc DVD RW AD-7580S Adapter: 1 ID: 0

    Режим чтения : Достоверность
    Использование точного потока : Да
    Отключение кэша аудио : Да
    Использование указателей C2 : Нет

    Коррекция смещения при чтении : 48
    Способность читать области Lead-in и Lead-out : Нет
    Заполнение пропущенных сэмплов тишиной : Да
    Удаление блоков с тишиной в начале и конце : Нет
    При вычислениях CRC использовались нулевые сэмплы : Да
    Интерфейс : Встроенный Win32-интерфейс для Win NT/2000

    Выходной формат : Внутренние WAV-операции
    Формат сэмплов : 44.100 Гц; 16 бит; стерео

    TOC извлечённого CD

    Трек | Старт | Длительность | Начальный сектор | Конечный сектор
    ---------------------------------------------------------------------
    1 | 0:00.00 | 4:43.48 | 0 | 21272
    2 | 4:43.48 | 4:13.14 | 21273 | 40261
    3 | 8:56.62 | 4:31.19 | 40262 | 60605
    4 | 13:28.06 | 6:01.04 | 60606 | 87684
    5 | 19:29.10 | 2:16.63 | 87685 | 97947
    6 | 21:45.73 | 1:54.46 | 97948 | 106543
    7 | 23:40.44 | 3:43.38 | 106544 | 123306
    8 | 27:24.07 | 5:13.00 | 123307 | 146781
    9 | 32:37.07 | 4:39.59 | 146782 | 167765
    10 | 37:16.66 | 2:11.57 | 167766 | 177647
    11 | 39:28.48 | 2:49.32 | 177648 | 190354
    12 | 42:18.05 | 2:43.10 | 190355 | 202589

    Характеристики диапазона извлечения и сообщения об ошибках

    Выбранный диапазон

    Имя файла D:\Music\Мелодии Украины - III\Народне - Мелодii Украiни.wav

    Пиковый уровень 99.0 %
    Качество диапазона 100.0 %
    CRC копии 8E8DC97F
    Копирование... OK

    Ошибок не произошло

    Конец отчёта
    Ошибок не произошло

    Конец отчёта
    fooCDtect
    fooCDtect - foobar2000 + auCDtect, baralgin.

    auCDtect: CD records authenticity detector, version 0.8.2
    Copyright (c) 2004 Oleg Berngardt. All rights reserved.
    Copyright (c) 2004 Alexander Djourik. All rights reserved.

    mode: 0

    =======================================================
    Track: 01 - Гопак опр. Я. Орлова
    Quality: CDDA, 100%
    =======================================================
    Track: 02 - Фантазія Для Бандури З Оркестром На Тему Української Народної Пісні 'Вечір На Дворі' муз. К. М'яскова, солист П. Чухрай
    Quality: CDDA, 99%
    =======================================================
    Track: 03 - Українські Візерунки опр. Д. Попичук, соліст Г. Агратина (свиріль)
    Quality: CDDA, 100%
    =======================================================
    Track: 04 - Фантазія Для Оркестру На Тему Української Народної Пісні 'Чуєш, Брате Мій' опр. В. Польового
    Quality: CDDA, 100%
    =======================================================
    Track: 05 - Старовинна Полька муз. народна
    Quality: CDDA, 100%
    =======================================================
    Track: 06 - Ліричний Танок муз. С. Гулака - Артемовського
    Quality: CDDA, 100%
    =======================================================
    Track: 07 - Подільський Козачок муз. І. Вимера
    Quality: CDDA, 100%
    =======================================================
    Track: 08 - Закарпатський Весільний Танок 'Березнянка' соліст Г. Агратіна
    Quality: CDDA, 100%
    =======================================================
    Track: 09 - Танцювальні Награвання муз. В. Гуцала
    Quality: CDDA, 85%
    =======================================================
    Track: 10 - Полтавський Козачок муз. Я. Лапинського
    Quality: CDDA, 100%
    =======================================================
    Track: 11 - Святковий Марш опр. В. Гуцала
    Quality: CDDA, 100%
    =======================================================
    Track: 12 - Запорізький Марш опр. В. Гуцала
    Quality: CDDA, 100%
    =======================================================
    2003 - Мелодії України. Частина 4-та

    Пісні:
      01. Українська Рапсодія. музика - І. Левицький
      02. Запорізький марш. музика - М. Лисенко
      03. Гагілка. музика - С. Людкевич
      04. Павочка. музика - Е. Кравченко
      05. Коло. музика - Е. Кравченко
      06. Веснянка. музика - Ю. Шевченко
      07. Квочка. музика - С. Людкєвич
      08. Спомин. музика - І. Поклад
      09. Козачок. музика - С. Гулак-Артемовський
      10. Концертна фантазія. музика - В. Марунич
      11. Весняний танок. музика - А. Гайденко
      12. Буковинські коломийки. музика - Опрацювання В. Гуцала
      13. Галицька полька. музика - Опрацювання О. Должикова
      14. Гуцульські наспіви. музика - Л. Затуловський
      15. Українська фантазія. музика - В. Попадюк

    Тривалість: 00:50:40
    Бітрейт: 744 кб/с
    log

    Exact Audio Copy V0.99 prebeta 4 from 23. January 2008

    Отчёт EAC об извлечении, выполненном 26. июня 2008, 8:30

    Ukrainian National Ensemble of Folk Instruments / Melodies of Ukraine vol 4

    Дисковод: ASUS DRW-2014L1T Adapter: 2 ID: 0

    Режим чтения : Достоверность
    Использование точного потока : Да
    Отключение кэша аудио : Да
    Использование указателей C2 : Нет

    Коррекция смещения при чтении : 6
    Способность читать области Lead-in и Lead-out : Нет
    Заполнение пропущенных сэмплов тишиной : Да
    Удаление блоков с тишиной в начале и конце : Нет
    При вычислениях CRC использовались нулевые сэмплы : Нет
    Интерфейс : Установленный внешний ASPI-интерфейс

    Выходной формат : Внутренние WAV-операции
    Формат сэмплов : 44.100 Гц; 16 бит; стерео

    TOC извлечённого CD

    Трек | Старт | Длительность | Начальный сектор | Конечный сектор
    ---------------------------------------------------------------------
    1 | 0:00.00 | 4:03.64 | 0 | 18288
    2 | 4:03.64 | 2:52.68 | 18289 | 31256
    3 | 6:56.57 | 4:17.17 | 31257 | 50548
    4 | 11:13.74 | 4:07.50 | 50549 | 69123
    5 | 15:21.49 | 2:25.61 | 69124 | 80059
    6 | 17:47.35 | 3:20.35 | 80060 | 95094
    7 | 21:07.70 | 1:51.41 | 95095 | 103460
    8 | 22:59.36 | 4:41.44 | 103461 | 124579
    9 | 27:41.05 | 2:03.22 | 124580 | 133826
    10 | 29:44.27 | 3:30.11 | 133827 | 149587
    11 | 33:14.38 | 3:23.47 | 149588 | 164859
    12 | 36:38.10 | 2:14.43 | 164860 | 174952
    13 | 38:52.53 | 2:32.66 | 174953 | 186418
    14 | 41:25.44 | 4:56.28 | 186419 | 208646
    15 | 46:21.72 | 4:18.39 | 208647 | 228035

    Характеристики диапазона извлечения и сообщения об ошибках

    Выбранный диапазон

    Имя файла D:\Melodies Ukraine\Melodies Ukraine 4\Новая папка\Ukrainian National Ensemble of Folk Instruments - Melodies of Ukraine vol 4.wav

    Пиковый уровень 97.4 %
    Качество диапазона 100.0 %
    CRC копии DB5C9D2C
    Копирование... OK

    Ошибок не произошло

    Конец отчёта
    fooCDtect
    fooCDtect - foobar2000 + auCDtect, baralgin.

    auCDtect: CD records authenticity detector, version 0.8.2
    Copyright (c) 2004 Oleg Berngardt. All rights reserved.
    Copyright (c) 2004 Alexander Djourik. All rights reserved.

    mode: 0

    =======================================================
    Track: 01 - Українська Рапсодія. музика - І. Левицький
    Quality: CDDA, 100%
    =======================================================
    Track: 02 - Запорізький марш. музика - М. Лисенко
    Quality: CDDA, 100%
    =======================================================
    Track: 03 - Гагілка. музика - С. Людкевич
    Quality: CDDA, 100%
    =======================================================
    Track: 04 - Павочка. музика - Е. Кравченко
    Quality: CDDA, 100%
    =======================================================
    Track: 05 - Коло. музика - Е. Кравченко
    Quality: CDDA, 100%
    =======================================================
    Track: 06 - Веснянка. музика - Ю. Шевченко
    Quality: CDDA, 100%
    =======================================================
    Track: 07 - Квочка. музика - С. Людкєвич
    Quality: CDDA, 100%
    =======================================================
    Track: 08 - Спомин. музика - І. Поклад
    Quality: CDDA, 100%
    =======================================================
    Track: 09 - Козачок. музика - С. Гулак-Артемовський
    Quality: CDDA, 100%
    =======================================================
    Track: 10 - Концертна фантазія. музика - В. Марунич
    Quality: CDDA, 100%
    =======================================================
    Track: 11 - Весняний танок. музика - А. Гайденко
    Quality: CDDA, 100%
    =======================================================
    Track: 12 - Буковинські коломийки. музика - Опрацювання В. Гуцала
    Quality: CDDA, 100%
    =======================================================
    Track: 13 - Галицька полька. музика - Опрацювання О. Должикова
    Quality: CDDA, 99%
    =======================================================
    Track: 14 - Гуцульські наспіви. музика - Л. Затуловський
    Quality: CDDA, 100%
    =======================================================
    Track: 15 - Українська фантазія. музика - В. Попадюк
    Quality: CDDA, 100%
    =======================================================
    2004 - Мелодії України. Частина 5-та

    Пісні:
      01. Калинонька (музика: М.Стецюн)
      02. Прикарпатські мелодії (музика: Д. Попічук)
      03. Гонивітер (музика: А. Кос-Анатольський)
      04. Гуцульські мелодії (музика: І. Вимер)
      05. Не шуми, калинонька (музика: І. Шамо)
      06. Ой, під вишнею (музика: С. Орел)
      07. Ой, дівчино, шумить гай (музика: Є. Станкович)
      08. Ой, не світи, місяченьку (музика: В. Степурко)
      09. Дощик (музика: В. Степурко)
      10. І шумить, і гуде (музика: Ю. Щербаков)
      11. Гумореска (музика: Ю. Шевченко)
      12. Прикарпатські мелодії (музика: В. Попадюк)
      13. Буковинські коломийки (музика: І. Міський)
      14. Купальська сюїта: а) Дівочий хоровод б) Відьма в) Ліричний танок г) Біля вогнища
      (музика: Т. Оскоменко-Парулава)

    Тривалість: 00:54:09
    Бітрейт: 824 кб/с
    log

    Exact Audio Copy V0.99 prebeta 4 from 23. January 2008

    Отчёт EAC об извлечении, выполненном 26. июня 2008, 9:12

    Ukrainian National Ensemble of Folk Instruments / Melodies of Ukraine vol.5

    Дисковод: ASUS DRW-2014L1T Adapter: 2 ID: 0

    Режим чтения : Достоверность
    Использование точного потока : Да
    Отключение кэша аудио : Да
    Использование указателей C2 : Нет

    Коррекция смещения при чтении : 6
    Способность читать области Lead-in и Lead-out : Нет
    Заполнение пропущенных сэмплов тишиной : Да
    Удаление блоков с тишиной в начале и конце : Нет
    При вычислениях CRC использовались нулевые сэмплы : Нет
    Интерфейс : Установленный внешний ASPI-интерфейс

    Выходной формат : Внутренние WAV-операции
    Формат сэмплов : 44.100 Гц; 16 бит; стерео

    TOC извлечённого CD

    Трек | Старт | Длительность | Начальный сектор | Конечный сектор
    ---------------------------------------------------------------------
    1 | 0:00.00 | 4:50.44 | 0 | 21793
    2 | 4:50.44 | 4:51.16 | 21794 | 43634
    3 | 9:41.60 | 1:45.63 | 43635 | 51572
    4 | 11:27.48 | 4:26.73 | 51573 | 71595
    5 | 15:54.46 | 3:53.21 | 71596 | 89091
    6 | 19:47.67 | 2:17.65 | 89092 | 99431
    7 | 22:05.57 | 2:14.33 | 99432 | 109514
    8 | 24:20.15 | 3:19.67 | 109515 | 124506
    9 | 27:40.07 | 1:46.50 | 124507 | 132506
    10 | 29:26.57 | 1:35.64 | 132507 | 139695
    11 | 31:02.46 | 4:42.54 | 139696 | 160899
    12 | 35:45.25 | 1:58.65 | 160900 | 169814
    13 | 37:44.15 | 5:32.64 | 169815 | 194778
    14 | 43:17.04 | 10:51.56 | 194779 | 243659

    Характеристики диапазона извлечения и сообщения об ошибках

    Выбранный диапазон

    Имя файла D:\Melodies Ukraine\Melodies Ukraine 5\Новая папка\Ukrainian National Ensemble of Folk Instruments - Melodies of Ukraine vol.5.wav

    Пиковый уровень 96.7 %
    Качество диапазона 100.0 %
    CRC копии 294D6DA3
    Копирование... OK

    Ошибок не произошло

    Конец отчёта
    fooCDtect
    fooCDtect - foobar2000 + auCDtect, baralgin.

    auCDtect: CD records authenticity detector, version 0.8.2
    Copyright (c) 2004 Oleg Berngardt. All rights reserved.
    Copyright (c) 2004 Alexander Djourik. All rights reserved.

    mode: 0

    =======================================================
    Track: 01 - Калинонька (музика- М.Стецюн)
    Quality: CDDA, 100%
    =======================================================
    Track: 02 - Прикарпатські мелодії (музика- Д. Попічук)
    Quality: CDDA, 100%
    =======================================================
    Track: 03 - Гонивітер (музика- А. Кос-Анатольський)
    Quality: CDDA, 100%
    =======================================================
    Track: 04 - Гуцульські мелодії (музика- І. Вимер)
    Quality: CDDA, 100%
    =======================================================
    Track: 05 - Не шуми, калинонька (музика- І. Шамо)
    Quality: CDDA, 100%
    =======================================================
    Track: 06 - Ой, під вишнею (музика- С. Орел)
    Quality: CDDA, 100%
    =======================================================
    Track: 07 - Ой, дівчино, шумить гай (музика- Є. Станкович)
    Quality: CDDA, 100%
    =======================================================
    Track: 08 - Ой, не світи, місяченьку (музика- В. Степурко)
    Quality: CDDA, 100%
    =======================================================
    Track: 09 - Дощик (музика- В. Степурко)
    Quality: CDDA, 100%
    =======================================================
    Track: 10 - І шумить, і гуде (музика- Ю. Щербаков)
    Quality: CDDA, 99%
    =======================================================
    Track: 11 - Гумореска (музика- Ю. Шевченко)
    Quality: CDDA, 100%
    =======================================================
    Track: 12 - Прикарпатські мелодії (музика- В. Попадюк)
    Quality: CDDA, 100%
    =======================================================
    Track: 13 - Буковинські коломийки (музика- І. Міський)
    Quality: CDDA, 100%
    =======================================================
    Track: 14 - Купальська сюїта- а) Дівочий хоровод б) Відьма в) Ліричний танок г) Біля вогнища (музика- Т. Оскоменко-Парулава)
    Quality: CDDA, 100%
    =======================================================
    2005 - Мелодії України. Частина 6-та

    Пісні:
      01. Весільний марш обр. В.Гекера
      02. Українська п'єса для цимбал з оркестром (соліст - нар. арт. Укр. Г. Агратіна (цимбали) обр. І. Миського)
      03. Гуцульські старосвітські награвання Л. Колодуб (соліст - лауреат міжнародних конкурсів, засл. арт. Укр. В. Овчарчин (сопілка))
      04. Покутські мотиви В.Парфенюк (соліст - засл. арт. Укр. Ю. Яценко (кобза))
      05. Сонячне коло І.Гайденко (соліст - нар. арт. Укр. Г. Агратіна (цимбали))
      06. Спомин І. Поклад (соліст - нар. арт. Укр. Г. Агратіна (свиріль))
      07. Українська фантазія В. Попадюк
      08. Суголосся Світояру Ю. Алжнєв (соліст - лауреат міжнародного конкурсу М. Сиротюк (сопілка))
      09. Варіації на лемківську народну тему В. Івко
      10. Гопалки І. Кириліна
      11. Віночок україньких народніх мелодій В. Попадюк
      12. Варіація на тему укр. нар. пісні " Ой при лужку" Є. Кравченко

    Тривалість: 00:54:25
    Бітрейт: 863 кб/с
    log

    Exact Audio Copy V0.99 prebeta 5 from 4. May 2009

    Отчёт EAC об извлечении, выполненном 22. апреля 2010, 5:03

    Orch. of folk instruments of Ukraine / Melodies of Ukraine vol. 6

    Дисковод: Optiarc DVD RW AD-7580S Adapter: 1 ID: 0

    Режим чтения : Достоверность
    Использование точного потока : Да
    Отключение кэша аудио : Да
    Использование указателей C2 : Нет

    Коррекция смещения при чтении : 48
    Способность читать области Lead-in и Lead-out : Нет
    Заполнение пропущенных сэмплов тишиной : Да
    Удаление блоков с тишиной в начале и конце : Нет
    При вычислениях CRC использовались нулевые сэмплы : Да
    Интерфейс : Встроенный Win32-интерфейс для Win NT/2000

    Выходной формат : Внутренние WAV-операции
    Формат сэмплов : 44.100 Гц; 16 бит; стерео

    TOC извлечённого CD

    Трек | Старт | Длительность | Начальный сектор | Конечный сектор
    ---------------------------------------------------------------------
    1 | 0:00.00 | 2:55.08 | 0 | 13132
    2 | 2:55.08 | 4:53.29 | 13133 | 35136
    3 | 7:48.37 | 3:39.23 | 35137 | 51584
    4 | 11:27.60 | 4:02.02 | 51585 | 69736
    5 | 15:29.62 | 7:56.36 | 69737 | 105472
    6 | 23:26.23 | 4:41.45 | 105473 | 126592
    7 | 28:07.68 | 4:18.07 | 126593 | 145949
    8 | 32:26.00 | 7:25.36 | 145950 | 179360
    9 | 39:51.36 | 3:47.52 | 179361 | 196437
    10 | 43:39.13 | 5:17.73 | 196438 | 220285
    11 | 48:57.11 | 2:52.36 | 220286 | 233221
    12 | 51:49.47 | 2:35.17 | 233222 | 244863

    Характеристики диапазона извлечения и сообщения об ошибках

    Выбранный диапазон

    Имя файла D:\Music\Мелодії України - VI\Orch. of folk instruments of Ukraine - Melodies of Ukraine vol. 6.wav

    Пиковый уровень 94.4 %
    Качество диапазона 99.9 %
    CRC копии DA22468E
    Копирование... OK
    Ошибок не произошло

    Конец отчёта
    fooCDtect
    fooCDtect - foobar2000 + auCDtect, baralgin.

    auCDtect: CD records authenticity detector, version 0.8.2
    Copyright (c) 2004 Oleg Berngardt. All rights reserved.
    Copyright (c) 2004 Alexander Djourik. All rights reserved.

    mode: 0

    =======================================================
    Track: 01 - Весільний марш обр. В.Гекера
    Quality: CDDA, 100%
    =======================================================
    Track: 02 - Українська п'єса для цимбал з оркестром (соліст - нар. арт. Укр. Г. Агратіна (цимбали) обр. І. Миського)
    Quality: CDDA, 100%
    =======================================================
    Track: 03 - Гуцульські старосвітські награвання Л. Колодуб (соліст - лауреат міжнародних конкурсів, засл. арт. Укр. В. Овчарчин (сопілка))
    Quality: CDDA, 100%
    =======================================================
    Track: 04 - Покутські мотиви В.Парфенюк (соліст - засл. арт. Укр. Ю. Яценко (кобза))
    Quality: CDDA, 100%
    =======================================================
    Track: 05 - Сонячне коло І.Гайденко (соліст - нар. арт. Укр. Г. Агратіна (цимбали))
    Quality: CDDA, 100%
    =======================================================
    Track: 06 - Спомин І. Поклад (соліст - нар. арт. Укр. Г. Агратіна (свиріль))
    Quality: CDDA, 100%
    =======================================================
    Track: 07 - Українська фантазія В. Попадюк
    Quality: CDDA, 100%
    =======================================================
    Track: 08 - Суголосся Світояру Ю. Алжнєв (соліст - лауреат міжнародного конкурсу М. Сиротюк (сопілка))
    Quality: CDDA, 100%
    =======================================================
    Track: 09 - Варіації на лемківську народну тему В. Івко
    Quality: CDDA, 100%
    =======================================================
    Track: 10 - Гопалки І. Кириліна
    Quality: CDDA, 100%
    =======================================================
    Track: 11 - Віночок україньких народніх мелодій В. Попадюк
    Quality: CDDA, 100%
    =======================================================
    Track: 12 - Варіація на тему укр. нар. пісні ' Ой при лужку' Є. Кравченко
    Quality: CDDA, 100%
    =======================================================
    2007 - Мелодії України. Частина 7-ма

    Пісні:
      01. Слов’янське коло (М. Рибченко)
      02. Чарівна ніч на Івана Купала (Г. Цицалюк)
      03. Буковинський танок (В. Гуцал)
      04. Чернігівська полька (О. Должиков)
      05. Веснянки (О. Чухрай)
      06. Вальс (М. Ризоль)
      07. Полька (В. Попадюк)
      08. Буковинський танок "Василиха" (В. Попадюк)
      09. Баркарола (М. Лисенко)
      10. Буковинські народні мелодії (В. Попадюк)
      11. Веснянка (И. Шамо)
      12. Полька (В. Самойленко)
      13. Циганський танок (О. Должиков)
      14. Єврейський танок "Танець сватів" (Л. Фельдман)
      15. Фантазія на тему укр. нар. пісні "Зоре моя вечірняя" (О. Незовибатько)
      16. Рапсодія в стилі "Гопак" (Я. Лапинський)

    Тривалість: 01:01:56
    Бітрейт: 853 кб/с
    log

    Exact Audio Copy V0.99 prebeta 4 from 23. January 2008

    Отчёт EAC об извлечении, выполненном 25. июня 2008, 8:02

    Національний оркестр народних інструментів України - Віктор Гуцал / Мелодії України - VII

    Дисковод: ASUS DRW-2014L1T Adapter: 2 ID: 0

    Режим чтения : Достоверность
    Использование точного потока : Да
    Отключение кэша аудио : Да
    Использование указателей C2 : Нет

    Коррекция смещения при чтении : 6
    Способность читать области Lead-in и Lead-out : Нет
    Заполнение пропущенных сэмплов тишиной : Да
    Удаление блоков с тишиной в начале и конце : Нет
    При вычислениях CRC использовались нулевые сэмплы : Нет
    Интерфейс : Установленный внешний ASPI-интерфейс

    Выходной формат : Внутренние WAV-операции
    Формат сэмплов : 44.100 Гц; 16 бит; стерео

    TOC извлечённого CD

    Трек | Старт | Длительность | Начальный сектор | Конечный сектор
    ---------------------------------------------------------------------
    1 | 0:00.00 | 2:41.73 | 0 | 12147
    2 | 2:41.73 | 4:11.56 | 12148 | 31028
    3 | 6:53.54 | 3:56.62 | 31029 | 48790
    4 | 10:50.41 | 2:33.49 | 48791 | 60314
    5 | 13:24.15 | 4:21.52 | 60315 | 79941
    6 | 17:45.67 | 3:48.68 | 79942 | 97109
    7 | 21:34.60 | 1:40.45 | 97110 | 104654
    8 | 23:15.30 | 5:47.48 | 104655 | 130727
    9 | 29:03.03 | 2:40.21 | 130728 | 142748
    10 | 31:43.24 | 6:01.13 | 142749 | 169836
    11 | 37:44.37 | 2:35.32 | 169837 | 181493
    12 | 40:19.69 | 2:45.31 | 181494 | 193899
    13 | 43:05.25 | 3:50.40 | 193900 | 211189
    14 | 46:55.65 | 4:09.05 | 211190 | 229869
    15 | 51:04.70 | 4:50.19 | 229870 | 251638
    16 | 55:55.14 | 6:01.19 | 251639 | 278732

    Характеристики диапазона извлечения и сообщения об ошибках

    Выбранный диапазон

    Имя файла D:\Torr\Національний оркестр народних інструментів України - Віктор Гуцал - Мелодії України - VII\Національний оркестр народних інструментів України - Віктор Гуцал - Мелодії України - VII.wav

    Пиковый уровень 94.4 %
    Качество диапазона 100.0 %
    CRC копии AEA98592
    Копирование... OK

    Ошибок не произошло

    Конец отчёта
    fooCDtect
    fooCDtect - foobar2000 + auCDtect, baralgin.

    auCDtect: CD records authenticity detector, version 0.8.2
    Copyright (c) 2004 Oleg Berngardt. All rights reserved.
    Copyright (c) 2004 Alexander Djourik. All rights reserved.

    mode: 0

    =======================================================
    Track: 01 - Слов’янське коло (М. Рибченко)
    Quality: CDDA, 100%
    =======================================================
    Track: 02 - Чарівна ніч на Івана Купала (Г. Цицалюк)
    Quality: CDDA, 100%
    =======================================================
    Track: 03 - Буковинський танок (В. Гуцал)
    Quality: CDDA, 100%
    =======================================================
    Track: 04 - Чернігівська полька (О. Должиков)
    Quality: CDDA, 100%
    =======================================================
    Track: 05 - Веснянки (О. Чухрай)
    Quality: CDDA, 99%
    =======================================================
    Track: 06 - Вальс (М. Ризоль)
    Quality: CDDA, 100%
    =======================================================
    Track: 07 - Полька (В. Попадюк)
    Quality: CDDA, 100%
    =======================================================
    Track: 08 - Буковинський танок 'Василиха' (В. Попадюк)
    Quality: CDDA, 99%
    =======================================================
    Track: 09 - Баркарола (М. Лисенко)
    Quality: CDDA, 100%
    =======================================================
    Track: 10 - Буковинські народні мелодії (В. Попадюк)
    Quality: CDDA, 100%
    =======================================================
    Track: 11 - Веснянка (И. Шамо)
    Quality: CDDA, 100%
    =======================================================
    Track: 12 - Полька (В. Самойленко)
    Quality: CDDA, 100%
    =======================================================
    Track: 13 - Циганський танок (О. Должиков)
    Quality: CDDA, 100%
    =======================================================
    Track: 14 - Єврейський танок 'Танець сватів' (Л. Фельдман)
    Quality: CDDA, 100%
    =======================================================
    Track: 15 - Фантазія на тему укр. нар. пісні 'Зоре моя вечірняя' (О. Незовибатько)
    Quality: CDDA, 99%
    =======================================================
    Track: 16 - Рапсодія в стилі 'Гопак' (Я. Лапинський)
    Quality: CDDA, 100%
    =======================================================
    2008 - Мелодії України. Частина 8-ма

    Пісні:
      01. Козачок - Л.Ревуцький
      02. Рапсодія для цимбал з оркестром - М.Стецюн (соліст - Г.Агратіна)
      03. 2 частини з сюїти "Народні замальовки" - Е. Льонко
      04. Молдавські народні мелодії "Дойна і жайворонок" (соліст - Г.Агратіна (свиріль))
      05. Фантазія на тему української народної пісні "Ніч яка місячні" - Я.Табачник (соліст - Я.Табачник (акордеон))
      06. Весняна хора - В.Раду
      07. Українська народна полька (виконує ансамбль сопілкарів)
      08. Пісня і танок - К. Данькевич
      09. Буковинські коломийки - І.Міський
      10. Єврейський танок "Ша стіл" - А.Бизов
      11. Угорський танок - Я.Табачник (соліст - Я.Табачник (акордеон))
      12. Плескач - Я.Лапинський

    Тривалість: 00:56:45
    Бітрейт: 787 кб/с
    log

    Exact Audio Copy V0.99 prebeta 5 from 4. May 2009

    Отчёт EAC об извлечении, выполненном 22. апреля 2010, 18:15

    Orch. of folk instruments of Ukraine / Melodies of Ukraine vol. 8

    Дисковод: Optiarc DVD RW AD-7580S Adapter: 1 ID: 0

    Режим чтения : Достоверность
    Использование точного потока : Да
    Отключение кэша аудио : Да
    Использование указателей C2 : Нет

    Коррекция смещения при чтении : 48
    Способность читать области Lead-in и Lead-out : Нет
    Заполнение пропущенных сэмплов тишиной : Да
    Удаление блоков с тишиной в начале и конце : Нет
    При вычислениях CRC использовались нулевые сэмплы : Да
    Интерфейс : Встроенный Win32-интерфейс для Win NT/2000

    Выходной формат : Внутренние WAV-операции
    Формат сэмплов : 44.100 Гц; 16 бит; стерео

    TOC извлечённого CD

    Трек | Старт | Длительность | Начальный сектор | Конечный сектор
    ---------------------------------------------------------------------
    1 | 0:00.00 | 1:47.65 | 0 | 8089
    2 | 1:47.65 | 11:52.40 | 8090 | 61529
    3 | 13:40.30 | 5:51.31 | 61530 | 87885
    4 | 19:31.61 | 5:59.65 | 87886 | 114875
    5 | 25:31.51 | 4:12.64 | 114876 | 133839
    6 | 29:44.40 | 4:12.48 | 133840 | 152787
    7 | 33:57.13 | 1:51.34 | 152788 | 161146
    8 | 35:48.47 | 4:38.12 | 161147 | 182008
    9 | 40:26.59 | 2:28.60 | 182009 | 193168
    10 | 42:55.44 | 4:07.70 | 193169 | 211763
    11 | 47:03.39 | 6:12.35 | 211764 | 239698
    12 | 53:15.74 | 3:29.36 | 239699 | 255409

    Характеристики диапазона извлечения и сообщения об ошибках

    Выбранный диапазон

    Имя файла D:\Music\Мелодии Украины - VIII\Orch. of folk instruments of Ukraine - Melodies of Ukraine vol. 8.wav

    Пиковый уровень 94.4 %
    Качество диапазона 100.0 %
    CRC копии D266E6F1
    Копирование... OK

    Ошибок не произошло

    Конец отчёта
    fooCDtect
    fooCDtect - foobar2000 + auCDtect, baralgin.

    auCDtect: CD records authenticity detector, version 0.8.2
    Copyright (c) 2004 Oleg Berngardt. All rights reserved.
    Copyright (c) 2004 Alexander Djourik. All rights reserved.

    mode: 0

    =======================================================
    Track: 01 - Козачок - Л.Ревуцький
    Quality: CDDA, 100%
    =======================================================
    Track: 02 - Рапсодія для цимбал з оркестром - М.Стецюн, соліст - Г.Агратіна
    Quality: CDDA, 100%
    =======================================================
    Track: 03 - 2 частини з сюїти 'Народні замальовки' - Е. Льонко
    Quality: CDDA, 100%
    =======================================================
    Track: 04 - Молдавські народні мелодії 'Дойна і жайворонок' - соліст - Г.Агратіна (свиріль)
    Quality: CDDA, 100%
    =======================================================
    Track: 05 - Фантазія на тему української народної пісні "Ніч яка місячні" - Я.Табачник (соліст - Я.Табачник (акордеон))
    Quality: CDDA, 100%
    =======================================================
    Track: 06 - Весняна хора - В.Раду
    Quality: CDDA, 99%
    =======================================================
    Track: 07 - Українська народна полька - виконує ансамбль сопілкарів
    Quality: CDDA, 99%
    =======================================================
    Track: 08 - Пісня і танок - К. Данькевич
    Quality: CDDA, 100%
    =======================================================
    Track: 09 - Буковинські коломийки - І.Міський
    Quality: CDDA, 100%
    =======================================================
    Track: 10 - Єврейський танок 'Ша стіл' - А.Бизов
    Quality: CDDA, 99%
    =======================================================
    Track: 11 - Угорський танок - Я.Табачник, соліст - Я.Табачник (акордеон)
    Quality: CDDA, 100%
    =======================================================
    Track: 12 - Плескач - Я.Лапинський
    Quality: CDDA, 100%
    =======================================================
    2010 - Мелодії України. Частина 9-та

    Пісні:
      01. Києве мій (І. Шамо)
      02. Черемшина (В. Михайлюк)
      03. Човен хитається (українська народна пісня)
      04. Пісня про рушник (П. Майборода)
      05. За нашов стодолов (українська народна пісня)
      06. Дивлюсь я на небо (Л. Александрова)
      07. Їхав козак за Дунай (С. Климовський)
      08. Чорні очка, як терен (українська народна пісня)
      09. Ой чий то кінь стоїть (українська народна пісня)
      10. Гуцулка Ксеня (Я. Барнич)
      11. Стоїть гора високая (М. Лисенко)
      12. Посилала мене мати (українська народна пісня)
      13. Місяць на небі (українська народна пісня)
      14. Горіла сосна, палала (українська народна пісня)
      15. Чорнії брови, карії очі (Д. Бонковський)
      16. Ой у гаї при Дунаї (українська народна пісня)
      17. Як ішов я з Дебречина (українська народна пісня)
      18. По садочку ходжу (українська народна пісня)
      19. Ой чорна я си чорна (українська народна пісня)
      20. Дніпровський вальс (І. Шамо)
      21. О, соловію (українське танго)
      22. Київський вальс (П. Майборода)

    Тривалість: 01:03:42
    Бітрейт: 871 кб/с
    log

    Exact Audio Copy V0.99 prebeta 3 from 28. July 2007

    Отчёт EAC об извлечении, выполненном 2. июля 2011, 12:12

    Національний оркестр народних інструментів України / Мелодії України - IX

    Дисковод: HL-DT-STDVDRAM GSA-4167B Adapter: 0 ID: 1

    Режим чтения : Достоверность
    Использование точного потока : Да
    Отключение кэша аудио : Нет
    Использование указателей C2 : Да

    Комбинированное смещение чтения/записи : 0
    Способность читать области Lead-in и Lead-out : Нет
    Заполнение пропущенных сэмплов тишиной : Да
    Удаление блоков с тишиной в начале и конце : Нет
    При вычислениях CRC использовались нулевые сэмплы : Нет
    Интерфейс : Встроенный Win32-интерфейс для Win NT/2000

    Выходной формат : Внутренние WAV-операции
    Формат сэмплов : 44.100 Гц; 16 бит; стерео

    TOC извлечённого CD

    Трек | Старт | Длительность | Начальный сектор | Конечный сектор
    ---------------------------------------------------------------------
    1 | 0:00.00 | 3:10.42 | 0 | 14291
    2 | 3:10.42 | 3:03.02 | 14292 | 28018
    3 | 6:13.44 | 3:49.14 | 28019 | 45207
    4 | 10:02.58 | 2:57.41 | 45208 | 58523
    5 | 13:00.24 | 2:11.73 | 58524 | 68421
    6 | 15:12.22 | 3:04.18 | 68422 | 82239
    7 | 18:16.40 | 2:06.27 | 82240 | 91716
    8 | 20:22.67 | 1:54.39 | 91717 | 100305
    9 | 22:17.31 | 4:36.05 | 100306 | 121010
    10 | 26:53.36 | 2:47.54 | 121011 | 133589
    11 | 29:41.15 | 3:21.00 | 133590 | 148664
    12 | 33:02.15 | 1:36.19 | 148665 | 155883
    13 | 34:38.34 | 3:44.28 | 155884 | 172711
    14 | 38:22.62 | 1:39.22 | 172712 | 180158
    15 | 40:02.09 | 3:26.23 | 180159 | 195631
    16 | 43:28.32 | 3:26.01 | 195632 | 211082
    17 | 46:54.33 | 1:47.35 | 211083 | 219142
    18 | 48:41.68 | 3:33.33 | 219143 | 235150
    19 | 52:15.26 | 2:03.60 | 235151 | 244435
    20 | 54:19.11 | 3:52.62 | 244436 | 261897
    21 | 58:11.73 | 2:46.13 | 261898 | 274360
    22 | 60:58.11 | 2:43.58 | 274361 | 286643

    Характеристики диапазона извлечения и сообщения об ошибках

    Выбранный диапазон

    Имя файла D:\1. Українська\Н\Національний оркестр народних інструментів України\2010 - Мелодії України. Частина 9-та [APE]\Національний оркестр народних інструментів України - Мелодії України - IX.wav

    Пиковый уровень 94.4 %
    Качество диапазона 99.9 %
    CRC копии 3D2EE74B
    Копирование... OK

    Ошибок не произошло

    Конец отчёта
    fooCDtect
    fooCDtect - foobar2000 + auCDtect, baralgin.

    auCDtect: CD records authenticity detector, version 0.8.2
    Copyright (c) 2004 Oleg Berngardt. All rights reserved.
    Copyright (c) 2004 Alexander Djourik. All rights reserved.

    mode: 0

    =======================================================
    Track: 01 - Києве мій, І. Шамо
    Quality: CDDA, 100%
    =======================================================
    Track: 02 - Черемшина, В. Михайлюк
    Quality: CDDA, 100%
    =======================================================
    Track: 03 - Човен хитається, укр.нар.пісня
    Quality: CDDA, 100%
    =======================================================
    Track: 04 - Пісня про рушник, П. Майборода
    Quality: CDDA, 100%
    =======================================================
    Track: 05 - За нашов стодолов, укр.нар.пісня
    Quality: CDDA, 100%
    =======================================================
    Track: 06 - Дивлюсь я на небо, Л. Александрова
    Quality: CDDA, 100%
    =======================================================
    Track: 07 - Їхав козак за Дунай, С. Климовський
    Quality: CDDA, 100%
    =======================================================
    Track: 08 - Чорні очка, як терен, укр.нар.пісня
    Quality: CDDA, 100%
    =======================================================
    Track: 09 - Ой чий то кінь стоїть, укр.нар.пісня
    Quality: CDDA, 100%
    =======================================================
    Track: 10 - Гуцулка Ксеня, Я. Барнич
    Quality: CDDA, 99%
    =======================================================
    Track: 11 - Стоїть гора високая, М. Лисенко
    Quality: CDDA, 100%
    =======================================================
    Track: 12 - Посилала мене мати, укр.нар.пісня
    Quality: CDDA, 99%
    =======================================================
    Track: 13 - Місяць на небі, укр.нар.пісня
    Quality: CDDA, 100%
    =======================================================
    Track: 14 - Горіла сосна, палала, укр.нар.пісня
    Quality: CDDA, 99%
    =======================================================
    Track: 15 - Чорнії брови, карії очі, Д. Бонковський
    Quality: CDDA, 100%
    =======================================================
    Track: 16 - Ой у гаї при Дунаї, укр.нар.пісня
    Quality: CDDA, 100%
    =======================================================
    Track: 17 - Як ішов я з Дебречина, укр.нар.пісня
    Quality: CDDA, 100%
    =======================================================
    Track: 18 - По садочку ходжу, укр.нар.пісня
    Quality: CDDA, 100%
    =======================================================
    Track: 19 - Ой чорна я си чорна, укр.нар.пісня
    Quality: CDDA, 99%
    =======================================================
    Track: 20 - Дніпровський вальс, І. Шамо
    Quality: CDDA, 100%
    =======================================================
    Track: 21 - О, соловію, Українське танго
    Quality: CDDA, 100%
    =======================================================
    Track: 22 - Київський вальс, П. Майборода
    Quality: CDDA, 100%
    =======================================================
    2011 - Мелодії України. Частина 10-та

    Національний оркестр народних інструментів України - Мелодії України (10 альбомів) (2001-2011) [FLAC] | Folk / InstrumentalПісні:
      01. Чом, чом, земле моя - Д. Січинський
      02. Нічка цікавая - українська народна пісня
      03. Зажурились галичанки - Р. Купчинський
      04. По садочку ходжу - українська народна пісня
      05. Ой, дівчино, шумить гай - українська народна пісня
      06. У вишневому садочку - українська народна пісня
      07. Ой ти, дівчино - А. Кос-Анатольський
      08. Пісня для тебе - В. Філіпенко
      09. Чарівна скрипка - І. Поклад
      10. Очі волошкові - С. Сабадаш
      11. Гей, видно село - Л. Лепкий
      12. Коли заснули сині гори - А. Кос-Анатольський
      13. Червоні маки - Р. Савицький
      14. Чорнобривці - В. Верменич
      15. Зоряна ніч - А. Кос-Анатольський
      16. Києве мій - І. Шамо

    Тривалість: 01:00:35
    Бітрейт: 824 кб/с
    log

    Exact Audio Copy V1.0 beta 1 from 15. November 2010

    EAC extraction logfile from 23. June 2011, 9:36

    Національний академічний оркестр народних інструментів України / Мелодії України - X

    Used drive : HL-DT-STDVDRAM GSA-T20N Adapter: 0 ID: 0

    Read mode : Secure
    Utilize accurate stream : Yes
    Defeat audio cache : Yes
    Make use of C2 pointers : No

    Read offset correction : 667
    Overread into Lead-In and Lead-Out : No
    Fill up missing offset samples with silence : Yes
    Delete leading and trailing silent blocks : No
    Null samples used in CRC calculations : Yes
    Used interface : Native Win32 interface for Win NT & 2000

    Used output format : User Defined Encoder
    Selected bitrate : 896 kBit/s
    Quality : High
    Add ID3 tag : No
    Command line compressor : C:\Program Files\Exact Audio Copy\wavpack.exe
    Additional command line options : -hlm %s

    TOC of the extracted CD

    Track | Start | Length | Start sector | End sector
    ---------------------------------------------------------
    1 | 0:00.00 | 3:09.46 | 0 | 14220
    2 | 3:09.46 | 3:39.55 | 14221 | 30700
    3 | 6:49.26 | 1:42.24 | 30701 | 38374
    4 | 8:31.50 | 4:55.01 | 38375 | 60500
    5 | 13:26.51 | 2:26.37 | 60501 | 71487
    6 | 15:53.13 | 3:37.04 | 71488 | 87766
    7 | 19:30.17 | 4:43.49 | 87767 | 109040
    8 | 24:13.66 | 5:41.21 | 109041 | 134636
    9 | 29:55.12 | 4:49.28 | 134637 | 156339
    10 | 34:44.40 | 3:34.70 | 156340 | 172459
    11 | 38:19.35 | 2:58.05 | 172460 | 185814
    12 | 41:17.40 | 5:18.35 | 185815 | 209699
    13 | 46:36.00 | 4:13.55 | 209700 | 228729
    14 | 50:49.55 | 3:13.46 | 228730 | 243250
    15 | 54:03.26 | 3:12.42 | 243251 | 257692
    16 | 57:15.68 | 3:18.58 | 257693 | 272600

    Range status and errors

    Selected range

    Filename D:\Мелодії України\Мелодії України - X.wav

    Peak level 98.5 %
    Extraction speed 0.2 X
    Range quality 100.0 %
    Test CRC 09373946
    Copy CRC 09373946
    Copy OK

    No errors occurred

    AccurateRip summary

    Track 1 not present in database
    Track 2 not present in database
    Track 3 not present in database
    Track 4 not present in database
    Track 5 not present in database
    Track 6 not present in database
    Track 7 not present in database
    Track 8 not present in database
    Track 9 not present in database
    Track 10 not present in database
    Track 11 not present in database
    Track 12 not present in database
    Track 13 not present in database
    Track 14 not present in database
    Track 15 not present in database
    Track 16 not present in database

    None of the tracks are present in the AccurateRip database

    End of status report

    ==== Log checksum 7F3CE3D3DB845CFD715982E8EDDC4ACCF7C74854C63694D0A8B85A41454591AE ====
    fooCDtect
    fooCDtect - foobar2000 + auCDtect, baralgin.

    auCDtect: CD records authenticity detector, version 0.8.2
    Copyright (c) 2004 Oleg Berngardt. All rights reserved.
    Copyright (c) 2004 Alexander Djourik. All rights reserved.

    mode: 0

    ===========================================
    Track: 01 - Чом, чом, земле моя - Д. Січинський
    Quality: CDDA 100%
    ===========================================
    Track: 02 - Нічка цікавая - українська народна пісня
    Quality: CDDA 100%
    ===========================================
    Track: 03 - Зажурились галичанки - Р. Купчинський
    Quality: CDDA 100%
    ===========================================
    Track: 04 - По садочку ходжу - українська народна пісня
    Quality: CDDA 100%
    ===========================================
    Track: 05 - Ой, дівчино, шумить гай - українська народна пісня
    Quality: CDDA 100%
    ===========================================
    Track: 06 - У вишневому садочку - українська народна пісня
    Quality: CDDA 100%
    ===========================================
    Track: 07 - Ой ти, дівчино - А. Кос-Анатольський
    Quality: CDDA 100%
    ===========================================
    Track: 08 - Пісня для тебе - В. Філіпенко
    Quality: CDDA 100%
    ===========================================
    Track: 09 - Чарівна скрипка - І. Поклад
    Quality: CDDA 100%
    ===========================================
    Track: 10 - Очі волошкові - С. Сабадаш
    Quality: CDDA 100%
    ===========================================
    Track: 11 - Гей, видно село - Л. Лепкий
    Quality: CDDA 100%
    ===========================================
    Track: 12 - Коли заснули сині гори - А. Кос-Анатольський
    Quality: CDDA 100%
    ===========================================
    Track: 13 - Червоні маки - Р. Савицький
    Quality: CDDA 100%
    ===========================================
    Track: 14 - Чорнобривці - В. Верменич
    Quality: CDDA 100%
    ===========================================
    Track: 15 - Зоряна ніч - А. Кос-Анатольський
    Quality: CDDA 100%
    ===========================================
    Track: 16 - Києве мій - І. Шамо
    Quality: CDDA 100%
    ===========================================

Тривалість: 09:32:11
Мова: instrumental
Аудіо-кодек: FLAC
Бітрейт: 695-871 кб/с
Джерело: інший трекер (1-8,10) (виправлено всі cue, теги, назви), ріп гуртомівця fv007 (9) (дякую за грамотний і якісний ріп)
Додаткова інформація:
У виконанні Національного оркестру народних інструментів України звучать народні і авторські, класичні і сучасні мелодії, які, безумовно, прикрашають скарбницю української музичної культури. Ви матимете можливість оцінити і майстерність виконавців, і різноманітність інструментального складу, завдяки якій кожна окрема мелодія і весь запис в цілому набувають вигляду такого собі багатокольорового килиму з переплетінням різних візерунків, кожен з яких несе власний настрій, власну ноту, але загалом створюється приємне відчуття насиченості довколишнього простору гармонією у чистому її вигляді.

Компакт диски, видані останнім часом Оркестром Народних Інструментів, я умовно називаю "перший", "другий", "третій". Насправді, всі вони однаково цікаві та не випадково користуються неабиякою популярністю у моїх клієнтів. На буклетах компакт дисків немає порядкових номерів і відрізняються вони лише кольорами оформлення та змістом інформації у буклеті.


Якщо Ви справді бажаєте підтримати українське - після прослуховування, якщо музика вам сподобалась,
придбайте ліцензійний диск.
Підтримаймо вітчизняних виконавців!


Золотий реліз (завантажене не впливає на рейтинг)
 Трекер:    Зареєстрований   

Завантажити / скачати українську музику



відео для новачків



 Зареєстрований:   2012-05-07 01:48
 Розмір:   3.27 GB 
 Оцінка музики:   9.3/10 (Голосів: 49)
   
ingwar 
Модератор літератури


З нами з: 08.03.08
Востаннє: 02.12.16
Повідомлень: 1200

2011-03-06 06:42  
Дякую, давно хотів подібне звантажити. Один диск навіть колись купив
Do-re-mi 
Частий відвідувач


З нами з: 30.05.10
Востаннє: 05.06.14
Повідомлень: 34

2011-03-08 01:07  
Люди добрі, та викладіть же, нарешті, будь ласка, в МР3!!! Невже ви серйозно вважаєте, що всі слухають тільки у запропонованому форматі? Невже так важко перегнати в інший і зробити різні роздачі?
ssTAss 
Модератор музики


З нами з: 05.07.08
Востаннє: 03.12.16
Повідомлень: 10930

2011-03-08 01:26  
Do-re-mi написано:
Невже так важко перегнати в інший і зробити різні роздачі?

хто Вам заважає це зробити? реліз золотий, на рейтинг не вплине, швидкість суперова (віддаю по максимуму)

Do-re-mi 
Частий відвідувач


З нами з: 30.05.10
Востаннє: 05.06.14
Повідомлень: 34

2011-06-26 16:08  
ssTAss
Якщо прошу співтрекерців, то значить - маю підстави саме ПРОСИТИ, а не ЗРОБИТИ САМОСТІЙНО. Не всі мають відповідні знання, вміння та можливості. Ви ж, наприклад, самі хліб, молоко та інші харчі самостійно не виробляєте, а в супермаркеті берете? Я теж. Кожен може щось робити у межах своїх умінь...
Роздача чудова, дякую за працю, проте в питанні форматів я все ж не один - великий відсоток аудиторії користується саме МР3.

ssTAss 
Модератор музики


З нами з: 05.07.08
Востаннє: 03.12.16
Повідомлень: 10930

2011-06-26 17:39  
Do-re-mi написано:
Якщо прошу

відповів так, бо Ви не просили, а з претензіями "наїхали"

мо хтось і зробить в мр3
але ведіть себе нормально (дійсно попросіть, а не вимагайте... тут ніхто нікому нічого не зобов'язаний)

iwan wan 
VIP


З нами з: 01.10.09
Востаннє: 03.12.16
Повідомлень: 1745

2011-06-26 19:39  
ssTAss написано:
мо хтось і зробить в мр3


Вже є на компі , на днях зроблю реліз на Толоці

Do-re-mi 
Частий відвідувач


З нами з: 30.05.10
Востаннє: 05.06.14
Повідомлень: 34

2011-06-27 01:24  
ssTAss
Прошу вибачити, якщо мої слова виглядали нечемними... Певно, хвилинні емоції тоді переважили у мені виховання і здоровий глузд... Буду вдячний за МР3. :-)

Додано через 4 хвилини 37 секунд:

iwan wan
Дякую від себе та імені всіх співтрекерців, що слухають музику в МР3! :-)

iwan wan 
VIP


З нами з: 01.10.09
Востаннє: 03.12.16
Повідомлень: 1745

2011-06-27 13:00  
Do-re-mi тримайте Wink (2)

Додайте будь ласка посилання на дані альбоми в МР3 http://www.toloka.to/t25767

Музика чудова , просто немає слів

ssTAss 
Модератор музики


З нами з: 05.07.08
Востаннє: 03.12.16
Повідомлень: 10930

2011-07-03 15:24  
УВАГА! Торрент-файл змінено.


Завдяки гуртомівцю fv007 додано 9-ту частину
Також додав всі лог-файли.
Прохання перевантажити торрент-файл (назву не змінював, можливо не треба буде перевантажувати, а тільки зробити переперевірку в торрент-клієнті, хоча не впевнений)

Ur 
Свій


З нами з: 09.06.09
Востаннє: 30.07.16
Повідомлень: 91

2011-07-10 03:30  
ssTAss величезне тобі Дякую, я вже й не сподівався, а тут навіть 9 дисків.

Маю невеличке зауваження, якщо ще в когось CUE-файли не знаходять фляка, то можливо у вас теж комп не розуміє імена закодовані у CP-1251. Якщо ви немаєте можливості або бажання змінити кодову сторінку яку використовує ваша ОС за замовчуванням, то потрібно:

змінити назви файлів і папок на латинські літери
перекодувати вміст CUE-файлів у юнікод

прикріплюю до цього повідомлення зразок моїх cue-файлів і списку треків у юнікоді
можете скопіювати їх собі на диск, змінити розширення файлу на .zip
розпакувати кожен cue-файл до папки з відповідним flac-файлом,
змінити імена flac-файлів у "National Academic Orchestra Folk Instruments of Ukraine - Melodies of Ukraine vol X". Замість X потрібно поставити номер тому відповідного альбому (від 1 до 9).
змінити імена папок на латинські літери
Сподіваюсь ця інформація стане вам у нагоді. Приємного прослуховування!
Музика просто суперова, шкода що її не поширюють і не шанують належним чином.

alexlekh 
Новенький


З нами з: 25.03.12
Востаннє: 08.02.15
Повідомлень: 5

2012-03-25 22:49  
Українська музика - то сила!!!В мене велика колекція класичної музики (не української,а просто класики),а також інструменталки,я готовий поділитись,але немає такого розділу на трекері.Колекція збиралась 5 років - з торентів,файлообмінників і т.д.Якщо цікаво - стукайте в персоналку,хай модери вирішують.
ssTAss 
Модератор музики


З нами з: 05.07.08
Востаннє: 03.12.16
Повідомлень: 10930

2012-03-25 22:58  
alexlekh написано:
не української

не можна
викладайте на інших трекерах
тут - або виконавець з України, або виконують українською

ssTAss 
Модератор музики


З нами з: 05.07.08
Востаннє: 03.12.16
Повідомлень: 10930

2012-05-07 01:52  
УВАГА! Торрент-файл змінено.
Додано 10-у частину


Прохання всіх перевантажити

tala1949 
Новенький


З нами з: 17.01.11
Востаннє: 30.11.16
Повідомлень: 21

2012-05-07 07:05  
Буду також дуже вдячна за mp3!
AmadeuSS 
Новенький


З нами з: 01.07.10
Востаннє: 08.05.12
Повідомлень: 1

2012-05-08 21:22  
Дуже добре що lossless. Переганяти якісну музіку в MP3 - то шкіднитство.
audix 
Новенький


З нами з: 22.06.12
Востаннє: 31.12.15
Повідомлень: 1

2012-06-22 16:58  
Чому не завантажується???

Додано через 5 хвилин 50 секунд:

Дякую! Але швидкість бажає кращого... ( 0.9 КБ/c )

ssTAss 
Модератор музики


З нами з: 05.07.08
Востаннє: 03.12.16
Повідомлень: 10930

2012-06-22 23:00  
audix написано:
Але швидкість бажає кращого

зараз стану на роздачу

Garbuss 
Новенький


З нами з: 08.12.12
Востаннє: 05.05.16
Повідомлень: 1

2012-12-08 12:35  
Нарешті завантажилось .
famous37 
Відео Гуртом - фільмокрай
Відео Гуртом - фільмокрай


З нами з: 16.11.08
Востаннє: 03.12.16
Повідомлень: 540

2014-02-16 21:09  
Гарні мелодії. Якісно записано. Рекомендую.=)
Ingvarock 
Новенький


З нами з: 30.07.15
Востаннє: 22.11.16
Повідомлень: 1

2016-09-08 13:40  
Скажіть, будь ласка, чи не видавались часом записи їх так званого "Рок-оркестру"? Чув на Ютубі, приїздили до нас у Вінницю нещодавно - аж закортіло мати у коллекції.
Буду дуже вдячний за будь-яку інформацію.

Ваш часовий пояс: GMT + 2 Години

Нова тема   Відповісти