Завантажити та скачати торренти українською


Hate Forest - To Twilight Thickets (2000) (перевидання 2011) [APE] | Black Metal / Ambient

Нові коментарі

Нова тема   Відповісти
Останній раз роздавалося bober (2013-01-31)
Автор Повідомлення
Swirl 
Оцифрування книг Гуртом
Оцифрування книг Гуртом


З нами з: 12.10.09
Востаннє: 24.02.15
Повідомлень: 495

2011-03-04 23:54  
Hate Forest - To Twilight Thickets (2000) (перевидання 2011) [APE] | Black Metal / Ambient



Стиль: Black Metal, Ambient
Країна, місто: Україна, Харків
Сайти:

Видавець: Elegy Records
Виконавці:
Роман Саєнко (Drudkh, Dark Ages, Blood of Kingu) - гітари, бас, ударні, вокал
Thurios (Drudkh, Astrofaes) - гітари, вокал
Пісні:
    1. Inmost Winter 03:21
    2. To the Thickets and Swamps 03:55
    3. Black Forest 04:39
    4. The Most Ancient Ones 04:09
    5. The Elders 04:49
    6. Darkness 06:01
    7. The Night of Winter Solstice 05:48
    8. The Curse 05:52
    9. Majesty of the Approaching Forest 04:03
    10. Snow Covers Faded Gold of Autumn 05:02
    11. First Rays of the Rising Sun 03:49
    12. Moon 04:32
    13. Spectral and Sad Is Thy Forest Dance 03:25
    14. Cold Early Morning Mist 05:32
    15. Winterfall 03:55
    16. Sunset and Twilight 02:31

Тривалість: 01:11:23
Мова: англійська
Аудіо-кодек: APE
Бітрейт: 538 кб/с
Джерело: інтернет
log
Exact Audio Copy V0.99 prebeta 4 from 23. January 2008
Отчёт EAC об извлечении, выполненном 28. февраля 2011, 20:16
Hate Forest / To Twilight Thickets
Дисковод: HL-DT-STDVDRAM GSA-H10N Adapter: 0 ID: 0
Режим чтения : Достоверность
Использование точного потока : Да
Отключение кэша аудио : Да
Использование указателей C2 : Нет
Коррекция смещения при чтении : 667
Способность читать области Lead-in и Lead-out : Нет
Заполнение пропущенных сэмплов тишиной : Да
Удаление блоков с тишиной в начале и конце : Нет
При вычислениях CRC использовались нулевые сэмплы : Да
Интерфейс : Встроенный Win32-интерфейс для Win NT/2000
Выходной формат : Внутренние WAV-операции
Формат сэмплов : 44.100 Гц; 16 бит; стерео
TOC извлечённого CD
Трек | Старт | Длительность | Начальный сектор | Конечный сектор
---------------------------------------------------------------------
1 | 0:00.00 | 3:22.09 | 0 | 15158
2 | 3:22.09 | 3:56.17 | 15159 | 32875
3 | 7:18.26 | 4:40.08 | 32876 | 53883
4 | 11:58.34 | 4:09.74 | 53884 | 72632
5 | 16:08.33 | 4:50.15 | 72633 | 94397
6 | 20:58.48 | 6:02.11 | 94398 | 121558
7 | 27:00.59 | 5:48.46 | 121559 | 147704
8 | 32:49.30 | 5:50.14 | 147705 | 173968
9 | 38:39.44 | 4:04.48 | 173969 | 192316
10 | 42:44.17 | 5:04.23 | 192317 | 215139
11 | 47:48.40 | 3:51.51 | 215140 | 232515
12 | 51:40.16 | 4:34.13 | 232516 | 253078
13 | 56:14.29 | 3:27.23 | 253079 | 268626
14 | 59:41.52 | 5:33.67 | 268627 | 293668
15 | 65:15.44 | 3:56.69 | 293669 | 311437
16 | 69:12.38 | 2:31.21 | 311438 | 322783
Характеристики диапазона извлечения и сообщения об ошибках
Выбранный диапазон
Имя файла D:\01-TEMP-10\MP3\Hate Forest 2000 To Twilight Thickets.wav
Пиковый уровень 80.3 %
Качество диапазона 100.0 %
CRC копии A56210EB
Копирование... OK
Ошибок не произошло
AccurateRip: сводка
Трек 1 нет в базе данных
Трек 2 нет в базе данных
Трек 3 нет в базе данных
Трек 4 нет в базе данных
Трек 5 нет в базе данных
Трек 6 нет в базе данных
Трек 7 нет в базе данных
Трек 8 нет в базе данных
Трек 9 нет в базе данных
Трек 10 нет в базе данных
Трек 11 нет в базе данных
Трек 12 нет в базе данных
Трек 13 нет в базе данных
Трек 14 нет в базе данных
Трек 15 нет в базе данных
Трек 16 нет в базе данных
Ни одного трека нет в базе AccurateRip
Конец отчёта



Якщо Ви справді бажаєте підтримати українське - після прослуховування, якщо музика вам сподобалась, придбайте ліцензійний диск. Підтримаймо вітчизняних виконавців!


Срібний реліз (на рейтинг впливає 50% завантаженого)
 Трекер:    Зареєстрований   

Завантажити / скачати українську музику



відео для новачків



 Зареєстрований:   2011-03-04 23:54
 Розмір:   287 MB 
 Оцінка музики:   10/10 (Голосів: 6)
   
ssTAss 
Модератор музики


З нами з: 05.07.08
Востаннє: 08.12.16
Повідомлень: 10947

2011-03-05 01:12  
одне питання
диск 2003 року чи 2000?

Swirl 
Оцифрування книг Гуртом
Оцифрування книг Гуртом


З нами з: 12.10.09
Востаннє: 24.02.15
Повідомлень: 495

2011-03-05 01:22  
таки 2000. металархіви збрехали. Виправив назву.
Lev 
VIP


З нами з: 14.10.09
Востаннє: 05.12.16
Повідомлень: 1819

2011-03-05 07:05  
чудова роздача!

Додано через 1 годину 33 хвилини 26 секунд:

зробив новину для головної Happy
мають сьогодні поставити.

Swirl 
Оцифрування книг Гуртом
Оцифрування книг Гуртом


З нами з: 12.10.09
Востаннє: 24.02.15
Повідомлень: 495

2011-03-05 09:56  
Lev
дякую, хоча завантажать ти та я та ми з тобою Wide grin

Lev 
VIP


З нами з: 14.10.09
Востаннє: 05.12.16
Повідомлень: 1819

2011-03-05 18:19  
Swirl написано:
дякую, хоча завантажать ти та я та ми з тобою


та отож Happy і шо тут народ слухає? Happy
хоча, зізнаюся, грішний - тягнув уночі цей реліз з рутрекера, бо ти певно шо спав (не було на роздачі), а послухати хотілося швидше Happy

дизайн диску теж дуже стильний зробили.

Swirl 
Оцифрування книг Гуртом
Оцифрування книг Гуртом


З нами з: 12.10.09
Востаннє: 24.02.15
Повідомлень: 495

2011-03-05 18:37  
Lev написано:
і шо тут народ слухає? Happy

в основному попсню та легкий рок) але й Хейт Форест, якщо можна так сказати - не зовсім звичайний блек.. колись на парах слухали і прозрівали.. особливо від гроулу Саєнка)
Lev написано:
бо ти певно шо спав (не було на роздачі)

все може бути)) близько другої вимкнув комп)
а оформлення дійсно стильне і шикарне. взагалі оформлення перевидань hate forest та drudkh на високому рівні. дуже сподобались.

Lev 
VIP


З нами з: 14.10.09
Востаннє: 05.12.16
Повідомлень: 1819

2011-03-06 08:10  
Swirl написано:
в основному попсню та легкий рок)


і це ж іще молоді люди... мда.

Swirl написано:
але й Хейт Форест, якщо можна так сказати - не зовсім звичайний блек..


і то правда Happy

Swirl написано:
взагалі оформлення перевидань hate forest та drudkh на високому рівні. дуже сподобались.


однозначно!

Lev 
VIP


З нами з: 14.10.09
Востаннє: 05.12.16
Повідомлень: 1819

2011-03-06 19:55  
а fog-music-shop пише, що перевидана Scythia ще й ремастерована і переаранжована по-новому.
цікаво, чи це правда, чи просто маркетинг Happy

Swirl 
Оцифрування книг Гуртом
Оцифрування книг Гуртом


З нами з: 12.10.09
Востаннє: 24.02.15
Повідомлень: 495

2011-03-06 21:39  
не порівнював та якщо цікаво можу mp3 320 кб/c підігнати.
alex_blank 
Частий відвідувач


З нами з: 03.01.10
Востаннє: 06.12.16
Повідомлень: 28

2012-11-11 20:17  
А чи можливо це отримати у FLAC потреково ?
ssTAss 
Модератор музики


З нами з: 05.07.08
Востаннє: 08.12.16
Повідомлень: 10947

2012-11-11 20:26  
alex_blank написано:
А чи можливо це отримати у FLAC потреково ?

запускаєте оцей файл
Цитата:
12 Hate Forest 2000 To Twilight Thickets.cue

в фубарі (foobar2000) і конвертуєте альбом в потрековий реліз (в флак чи мр3)
робити на 2-3 хвилини

Ваш часовий пояс: GMT + 2 Години

Нова тема   Відповісти