Завантажити та скачати торренти українською


VA - Києве мій. Золота колекція (2006) [WV] | Folk / Classic

Нові коментарі

Нова тема   Відповісти
Останній раз роздавалося srgpetrov (2016-11-02)
Автор Повідомлення
ssTAss 
Модератор музики


З нами з: 05.07.08
Востаннє: 05.12.16
Повідомлень: 10941

2011-03-04 01:17  
VA - Києве мій. Золота колекція (2006) [WV] | Folk / Classic



Стиль: Folk, Classic, Instrumental
Країна, місто: Україна, Київ
Видавець: Астра Рекордс
Пісні:
    1. Києве мій (симф. орк. Укррадіо) (музика: І. Шамо)
    2. Київський вальс (М. Фокін, М. Шевченко) (музика: П. Майборода слова: А. Малишко)
    3. Золоті ворота (М. Раков) (музика: І. Драго слова: І. Барах)
    4. Київ цвіте (А. Шутько, С. Петрова, А. Мамченко) (музика: В. Вірменич слова: М. Подолян)
    5. Здрастуй, Києве мій (Р. Майборода) (музика: В. Філіпенко слова: Л. Рева)
    6. Наш Київ (Т. Русова) (музика: В. Іванова слова: В. Іванова)
    7. Я люблю тебе, Київ (О. Таранець, М. Раков) (музика: М. Жербін слова: О. Єрусалимський)
    8. Київський вальс (концертний анс. Укррадіо) (музика: П. Майборода слова: П. Майборода)
    9. Київ – це місто любові (А. Шутько, С. Петрова, А. Мамченко) (музика: І. Шамо слова: М. Шахтинський)
    10. Київський вальс (духовий орк. штабу КВО) (музика: В. Гомоляка)
    11. Тільки в Києві (В. Бокоч) (музика: І. Шамо слова: М. Ткач)
    12. Володимирська гірка (інструм. анс. під керівн. В. Місаїлова) (музика: В. Місаїлов)
    13. Каштани Києва (А. Шутько, С. Петрова, А. Мамченко) (музика: О. Сандлер слова: В. Бронін, І. Фінк)
    14. Києве мій (Микола Кондратюк) (музика: І. Шамо слова: Д. Луценко)
    15. Мій Київ (В. Шпортько) (музика: І. Карабиць слова: В. Герасимов)
log
Exact Audio Copy V0.99 prebeta 5 from 4. May 2009

Отчёт EAC об извлечении, выполненном 13. июня 2009, 20:11

Україна / Києве мiй

Дисковод: ASUS CRW-5232AS Adapter: 3 ID: 0

Режим чтения : Достоверность
Использование точного потока : Да
Отключение кэша аудио : Да
Использование указателей C2 : Нет

Коррекция смещения при чтении : 6
Способность читать области Lead-in и Lead-out : Нет
Заполнение пропущенных сэмплов тишиной : Да
Удаление блоков с тишиной в начале и конце : Нет
При вычислениях CRC использовались нулевые сэмплы : Да
Интерфейс : Установленный внешний ASPI-интерфейс

Выходной формат : Пользовательский кодировщик
Выбранный битрейт : 1024 kBit/s
Качество : Высокий
Добавление ID3-тэга : Нет
Утилита сжатия : C:\Program Files\Exact Audio Copy-0.99pb5\wavpack.exe
Дополнительные параметры : -w "Track=%n" -w "Title=%t" -w "Artist=%a" -w "Album=%g" -w "Year=%y" -w "Genre=%m" -hh -m -x1 %s %d

TOC извлечённого CD

Трек | Старт | Длительность | Начальный сектор | Конечный сектор
---------------------------------------------------------------------
1 | 0:00.00 | 1:19.04 | 0 | 5928
2 | 1:19.04 | 3:47.00 | 5929 | 22953
3 | 5:06.04 | 3:43.02 | 22954 | 39680
4 | 8:49.06 | 3:32.00 | 39681 | 55580
5 | 12:21.06 | 3:48.06 | 55581 | 72686
6 | 16:09.12 | 3:50.06 | 72687 | 89942
7 | 19:59.18 | 3:40.00 | 89943 | 106442
8 | 23:39.18 | 4:09.02 | 106443 | 125119
9 | 27:48.20 | 3:35.01 | 125120 | 141245
10 | 31:23.21 | 3:02.14 | 141246 | 154909
11 | 34:25.35 | 3:27.04 | 154910 | 170438
12 | 37:52.39 | 6:11.03 | 170439 | 198266
13 | 44:03.42 | 2:51.03 | 198267 | 211094
14 | 46:54.45 | 3:49.03 | 211095 | 228272
15 | 50:43.48 | 4:43.00 | 228273 | 249497

Характеристики диапазона извлечения и сообщения об ошибках

Выбранный диапазон

Имя файла N:\Києве мiй\Україна - Києве мiй.wav

Пиковый уровень 97.1 %
Качество диапазона 99.9 %
CRC теста F848B936
CRC копии F848B936
Копирование... OK

Ошибок не произошло

AccurateRip: сводка

Трек 1 нет в базе данных
Трек 2 нет в базе данных
Трек 3 нет в базе данных
Трек 4 нет в базе данных
Трек 5 нет в базе данных
Трек 6 нет в базе данных
Трек 7 нет в базе данных
Трек 8 нет в базе данных
Трек 9 нет в базе данных
Трек 10 нет в базе данных
Трек 11 нет в базе данных
Трек 12 нет в базе данных
Трек 13 нет в базе данных
Трек 14 нет в базе данных
Трек 15 нет в базе данных

Ни одного трека нет в базе AccurateRip

Конец отчёта
fooCDtect log

fooCDtect - foobar2000 + auCDtect, baralgin.

auCDtect: CD records authenticity detector, version 0.8.2
Copyright (c) 2004 Oleg Berngardt. All rights reserved.
Copyright (c) 2004 Alexander Djourik. All rights reserved.

mode: 0

=======================================================
Track: 01 - Києве мій (симф. орк. Укррадіо)
Quality: CDDA, 100%
=======================================================
Track: 02 - Київський вальс (М. Фокін, М. Шевченко)
Quality: CDDA, 100%
=======================================================
Track: 03 - Золоті ворота (М. Раков)
Quality: CDDA, 100%
=======================================================
Track: 04 - Київ цвіте (А. Шутько, С. Петрова, А. Мамченко)
Quality: MPEG, 95%
=======================================================
Track: 05 - Здрастуй, Києве Мій (Р. Майборода)
Quality: CDDA, 100%
=======================================================
Track: 06 - Наш Київ (Т. Русова)
Quality: CDDA, 100%
=======================================================
Track: 07 - Я люблю тебе, Київ (О. Таранець, М. Раков)
Quality: CDDA, 100%
=======================================================
Track: 08 - Київський вальс (концертний анс. Укррадіо)
Quality: CDDA, 85%
=======================================================
Track: 09 - Київ – це місто любові (А. Шутько, С. Петрова, А. Мамченко)
Quality: CDDA, 100%
=======================================================
Track: 10 - Київський вальс (духовий орк. Штабу КВО)
Quality: CDDA, 99%
=======================================================
Track: 11 - Тільки в Києві (В. Бокоч)
Quality: CDDA, 100%
=======================================================
Track: 12 - Володимирська Гірка (iнструм. анс. під керівн. В. Місаїлова)
Quality: CDDA, 100%
=======================================================
Track: 13 - Каштани Києва (А. Шутько, С. Петрова, А. Мамченко)
Quality: CDDA, 100%
=======================================================
Track: 14 - Києве мій (Микола Кондратюк)
Quality: CDDA, 100%
=======================================================
Track: 15 - Мій Київ (В. Шпортько)
Quality: CDDA, 100%
=======================================================
Тривалість: 00:55:27
Мова: українська, instrumental (1,8,10,12)
Аудіо-кодек: WavPack (log та сue вбудовані)
Бітрейт: 749 кб/с
Джерело: netlab (в роздачі присутні скани)
Додаткова інформація:
Навіть не знаю, а чи таки потрібно хоч раз побувати в Києві, аби отримати задоволення від цього диску. Хоча ні, знаю – воно б краще побувати, але не обов’язково. Бо, з одного боку, приємно зараз, слухаючи диск, згадувати, як чув ці пісні на київських вулицях – так, зазвичай, буває на свята. А з іншого боку певен, послухаєш таку збірку – і зрозумієш про Київ дещо важливе, навіть жодного разу не бувавши в ньому. Тому що головна ознака цього міста, як на мене – радісний спокій, м’яка привітність. Навіть в зимові морози, навіть в осінні дощі. А тим паче – навесні та влітку. Тоді люди і так стають яскравішими, а кияни та киянки – тим більше. Тож не дивно, що такими є і зібрані тут пісні – радісними і спокійними, м’якими та привітними. А значить – здатними внести злагоду у будь-який засмучений день, або надати нових відтінків дню щасливому. Хай буде так.


Якщо Ви справді бажаєте підтримати українське - після прослуховування, якщо музика вам сподобалась,
придбайте ліцензійний диск.
Підтримаймо вітчизняних виконавців!


Срібний реліз (на рейтинг впливає 50% завантаженого)
 Трекер:    Зареєстрований   

Завантажити / скачати українську музику



відео для новачків



 Зареєстрований:   2011-03-04 01:17
 Розмір:   298 MB 
 Оцінка музики:   7.3/10 (Голосів: 10)
   
Ваш часовий пояс: GMT + 2 Години

Нова тема   Відповісти