Завантажити та скачати торренти українською


Зоя Христич - Арії з опер та романси (2008) [FLAC] | Opera / Classic

Нові коментарі

Нова тема   Відповісти
Останній раз роздавалося ssTAss (2016-11-27)
Автор Повідомлення
ssTAss 
Модератор музики


З нами з: 05.07.08
Востаннє: 08.12.16
Повідомлень: 10947

2011-03-03 22:16  
Зоя Христич - Арії з опер та романси (2008) [FLAC] | Opera / Classic



Стиль: Opera, Classic
Країна, місто: Молдова, Тираспіль | Україна, Київ
Видавець: НРКУ
Виконавці:
Народна артистка УРСР Зоя Петрівна Христич
Пісні:
    1 Дж.Верді Арія Леонори з 4 дії опери «Трубадур»
    2 Дж. Пуччіні. Монолог ЧіоЧіо Сан с 2 дії опери «Мадам Батерфляй»
    3 Дж. Пуччіні Вальс Мюзетти з опери «Богема»
    4 Дж. Пуччіні Арія Ліу з опери «Турандот»
    5 Д. Буддей «Букет квітів з Ніцци»
    6 М. Римський-Корсаков Арія Сервіли з опери «Сервілія»
    7 М. Римський-Корскаков Арія Марфи «Царевна Наречена»
    8 Чайковський Аріозо Іоланти «Іоланта»
    9 А. Дворжак «Пам*ятаю»
    10 В. Белліні Каватіна Норми «Норма»
    11 В. Белліні Каватіна і арія Норми «Норма»
    12 О. Крем*є «Коли вмирає любов»
    13 М. Римський-Корскаков Арія Марфи «Царевна Наречена»
    14 Дж. Пуччіні Арія Чіо-Чіо Сан «Мадам Баттерфляй»
    15 Дж.Верді, Арія Леонори «Трубадур»
    16 М. Понсе «Мексиканська серинада»
log

Exact Audio Copy V0.99 prebeta 4 from 23. January 2008

EAC extraction logfile from 3. July 2009, 3:31

Zoya Khrystych / Opera Arias and Romances

Used drive : HL-DT-STDVD-RAM GSA-H55N Adapter: 1 ID: 0

Read mode : Secure
Utilize accurate stream : Yes
Defeat audio cache : Yes
Make use of C2 pointers : No

Read offset correction : 102
Overread into Lead-In and Lead-Out : No
Fill up missing offset samples with silence : Yes
Delete leading and trailing silent blocks : No
Null samples used in CRC calculations : Yes
Used interface : Installed external ASPI interface

Used output format : User Defined Encoder
Selected bitrate : 1024 kBit/s
Quality : High
Add ID3 tag : No
Command line compressor : C:\Program Files\Exact Audio Copy\Flac\flac.exe
Additional command line options : -8 -V -T "ARTIST=%a" -T "TITLE=%t" -T "ALBUM=%g" -T "DATE=%y" -T "TRACKNUMBER=%n" -T "GENRE=%m" -T "COMMENT=EAC FLAC -8" %s

TOC of the extracted CD

Track | Start | Length | Start sector | End sector
---------------------------------------------------------
1 | 0:00.00 | 5:47.07 | 0 | 26031
2 | 5:47.07 | 4:26.04 | 26032 | 45985
3 | 10:13.11 | 2:23.10 | 45986 | 56720
4 | 12:36.21 | 3:58.41 | 56721 | 74611
5 | 16:34.62 | 4:42.25 | 74612 | 95786
6 | 21:17.12 | 5:04.19 | 95787 | 118605
7 | 26:21.31 | 5:12.07 | 118606 | 142012
8 | 31:33.38 | 2:50.09 | 142013 | 154771
9 | 34:23.47 | 3:15.01 | 154772 | 169397
10 | 37:38.48 | 6:23.01 | 169398 | 198123
11 | 44:01.49 | 8:09.67 | 198124 | 234865
12 | 52:11.41 | 5:15.43 | 234866 | 258533
13 | 57:27.09 | 6:11.24 | 258534 | 286382
14 | 63:38.33 | 3:00.10 | 286383 | 299892
15 | 66:38.43 | 7:09.14 | 299893 | 332081
16 | 73:47.57 | 3:11.40 | 332082 | 346446

Range status and errors

Selected range

Filename E:\+DVD Projects\+UPLOAD\CD_Z.Khrystych\Zoya Khrystych - Opera Arias and Romances.wav

Peak level 96.8 %
Range quality 99.9 %
Copy CRC A5FB143E
Copy OK

No errors occurred

End of status report
fooCDtect (записи 60-х років)

Тривалість: 01:16:59
Мова: італійська (?) (1-4, 10,11,14,15), російська (5-9, 12-14,16)
Аудіо-кодек: FLAC
Бітрейт: 495 кб/с
Джерело: rutracker
Додаткова інформація:
про виконавця
Зо́я Петрі́вна Хри́стич (* 1 листопада 1932, місто Тирасполь, Молдова) — українська оперна співачка (ліричне сопрано), педагог. Народна артистка УРСР (1965).

1956 закінчила Одеську консерваторію (клас Ольги Благовидової). 1956—1981 — солістка Київського театру опери та балету.
Від 1965 — викладач Київської консерваторії, від 1984 — професор. Серед учнів — Лідія Забіляста, Володимир Гришко.

Виступає у класичному репертуарі, зокрема:
Леонора («Трубадур» Дж. Верді),
Маргарита («Фавст» Ш. Ґуно),
Ельза («Льоенґрін» Р. Ваґнера),
Цариця Ночі («Чарівна флейта» В. А. Моцарта),
Біянка («Приборкання непокірної» В. Шебаліна) та ін.

В українському репертуарі:
Катерина (однойменна опера Миколи Аркаса),
Гелена («Богдан Хмельницький» Костянтина Данькевича),
Оксана («Запорожець за Дунаєм» Семена Гулака-Артемовського),
Наталка («Наталка Полтавка» Миколи Лисенка) й ін.

Христич — лауреатка міжнародних конкурсів. Виступала з концертами в Італії, на Кубі та ін.


Якщо Ви справді бажаєте підтримати українське - після прослуховування, якщо музика вам сподобалась,
придбайте ліцензійний диск.
Підтримаймо вітчизняних виконавців!


Срібний реліз (на рейтинг впливає 50% завантаженого)
 Трекер:    Зареєстрований   

Завантажити / скачати українську музику



відео для новачків



 Зареєстрований:   2011-03-03 22:16
 Розмір:   277 MB 
 Оцінка музики:   6.1/10 (Голосів: 7)
   
67maximov 
Частий відвідувач


З нами з: 06.10.10
Востаннє: 02.12.16
Повідомлень: 26

2011-04-22 18:06  
Щиро дякую - дуже цікавий для мене диск, яки неможливо ніде знайти.
Ваш часовий пояс: GMT + 2 Години

Нова тема   Відповісти