Завантажити та скачати торренти українською


Шерлок Холмс / Sherlock Holmes (2009) 720p 2xUkr/Eng | Sub Eng

Нові коментарі

Нова тема   Відповісти
Автор Повідомлення
braveboy 
Відео Гуртом - команда HD
Відео Гуртом - команда HD


З нами з: 15.06.10
Востаннє: 29.10.16
Повідомлень: 958

2011-03-02 23:15  

Шерлок Холмс / Sherlock Holmes (2009) 720p 2xUkr/Eng | Sub Eng



«Від них не сховаєшся »


Жанр: бойовик, детектив, сімейний, пригодницький
Країна: США, Англія



Кіностудія / кінокомпанія: Warner Brothers
Режисер: Гай Річі
Актори: Роберт Дауні мол., Джуд Лоу, Рейчел МакАдамс, Марк Стронг, Едді Марсан, Роберт Мейллет, Джеральдін Джеймс, Келлі Райлі, Вільям Х'юстон, Ганс Метісон

Бюджет $ 90 000 000
Збори в США $ 209 028 679
Збори у світі + $306 600 000 = $515 628 679


Сюжет:
Знаменитий детектив Шерлок Холмс і його друг доктор Ватсон ведуть чергове розслідування – намагаються відвернути загрозу для всієї Англії.

Студія “Коламбія” готувала до запуску комедію з Сашею Барон-Коеном у ролі Холмса та Віллом Ферреллом у ролі Ватсона. Однак “Коламбію” випередили продюсер Лайонел Вілгрем та режисер Гай Річі, які вирішили піти іншим шляхом.

Вілгрем більше десяти років обдумував концепцію переосмислення образу Шерлока Холмса. “Я дуже люблю оповідання про його пригоди, - каже продюсер. - Але коли я їх читаю, перед моїми очима встають зовсім інші картини, ніж ті, які я бачу на кіноекрані. Я завжди уявляв собі більш сучасного, більш богемного Шерлока Холмса, який одягається, як художник або поет”. У 2006 р. Вілгрем та художник Джон Воткіс створили 25-сторінковий комікс про пригоди Холмса і використали його як наживку для студій. Комікс дозволив їм не тільки розповісти, а й показати студійному начальству, якою вони бачать сучасну історію про Шерлока Холмса.
Цікаві факти

* Під час зйомок бойової сцени колишній рестлер Роберт Мейллет випадково нокаутував актора Роберта Дауні-молодшого.
* На роль доктора Ватсона було розглянуто понад 20-ть акторів (Джон Кьюсак, Джерард Батлер і Кріс Пайн), проте вибір припав на Джуда Лоу.
Тривалість: 2:08:24
Якість: 720p
Відео:
кодек:
розмір кадру: 1280 x 720
бітрейт: 6892 кб/с

Аудіо # 1:
мова: українська
переклад: професійний дубльований
кодек: 5.1
бітрейт: 448 кб/с

Аудіо # 2:
мова: українська
переклад: багатоголосий закадровий
кодек: 2.0
бітрейт: 128 кб/с

Аудіо # 3:
мова: англійська
переклад: оригінал
кодек: 5.1
бітрейт: 1536 кб/с

Субтитри #1:
мова: українська (Forced)
тип: програмні (м'які)
формат: *.srt

Субтитри #2:
мова: англійська (Full, SDH)
тип: програмні (м'які)
формат: *.srt
log

[info]: frame I:2411 Avg QP:13.59 size:152484
[info]: frame P:40220 Avg QP:15.90 size: 67713
[info]: frame B:142027 Avg QP:17.95 size: 24948
[info]: consecutive B-frames: 2.6% 2.1% 7.2% 23.6% 16.2% 42.3% 5.9%
[info]: mb I I16..4: 11.5% 66.0% 22.5%
[info]: mb P I16..4: 3.0% 16.4% 3.2% P16..4: 34.2% 22.1% 14.9% 2.1% 0.6% skip: 3.5%
[info]: mb B I16..4: 0.3% 2.5% 0.5% B16..8: 39.2% 15.3% 4.2% direct: 7.2% skip:30.8% L0:42.5% L1:43.1% BI:14.4%
[info]: 8x8 transform intra:72.6% inter:49.0%
[info]: coded y,uvDC,uvAC intra: 92.1% 71.0% 44.3% inter: 37.2% 20.0% 7.1%
[info]: i16 v,h,dc,p: 29% 6% 14% 50%
[info]: i8 v,h,dc,ddl,ddr,vr,hd,vl,hu: 10% 8% 6% 10% 14% 13% 14% 12% 13%
[info]: i4 v,h,dc,ddl,ddr,vr,hd,vl,hu: 8% 7% 4% 10% 16% 14% 14% 12% 15%
[info]: i8c dc,h,v,p: 41% 27% 20% 13%
[info]: Weighted P-Frames: Y:4.0% UV:2.0%
[info]: ref P L0: 45.5% 7.8% 20.7% 7.7% 6.6% 4.6% 4.3% 2.5% 0.2% 0.0%
[info]: ref B L0: 78.1% 10.8% 5.0% 2.6% 1.8% 1.2% 0.5%
[info]: ref B L1: 94.1% 5.9%
[info]: kb/s:6891.22
MediaInfo

Video
ID : 1
Format : AVC
Format/Info : Advanced Video Codec
Format profile : [email protected]
Format settings, CABAC : Yes
Format settings, ReFrames : 8 frames
Codec ID : V_MPEG4/ISO/AVC
Duration : 2h 8mn
Bit rate : 6 892 Kbps
Width : 1 280 pixels
Height : 720 pixels
Display aspect ratio : 16:9
Frame rate mode : Constant
Frame rate : 23.976 fps
Color space : YUV
Chroma subsampling : 4:2:0
Bit depth : 8 bits
Scan type : Progressive
Bits/(Pixel*Frame) : 0.312
Stream size : 6.02 GiB (75%)
Title : Sherlock Holmes (2009) 720p by braveboy
Writing library : core 120 r2120 0c7dab9
Encoding settings : cabac=1 / ref=8 / deblock=1:-3:-3 / analyse=0x3:0x133 / me=umh / subme=9 / psy=1 / psy_rd=0.80:0.00 / mixed_ref=1 / me_range=32 / chroma_me=1 / trellis=1 / 8x8dct=1 / cqm=0 / deadzone=21,11 / fast_pskip=0 / chroma_qp_offset=-2 / threads=3 / sliced_threads=0 / nr=0 / decimate=0 / interlaced=0 / bluray_compat=0 / constrained_intra=0 / bframes=6 / b_pyramid=2 / b_adapt=2 / b_bias=0 / direct=1 / weightb=1 / open_gop=0 / weightp=2 / keyint=240 / keyint_min=23 / scenecut=40 / intra_refresh=0 / rc_lookahead=40 / rc=2pass / mbtree=1 / bitrate=6892 / ratetol=1.0 / qcomp=0.60 / qpmin=10 / qpmax=51 / qpstep=4 / cplxblur=20.0 / qblur=0.5 / ip_ratio=1.40 / aq=1:1.00
Default : Yes
Forced : No

Audio #1
ID : 2
Format : AC-3
Format/Info : Audio Coding 3
Mode extension : CM (complete main)
Format settings, Endianness : Big
Codec ID : A_AC3
Duration : 2h 8mn
Bit rate mode : Constant
Bit rate : 448 Kbps
Channel(s) : 6 channels
Channel positions : Front: L C R, Side: L R, LFE
Sampling rate : 48.0 KHz
Bit depth : 16 bits
Compression mode : Lossy
Stream size : 411 MiB (5%)
Title : 5.1 @ 448 kbps [Blu-ray]
Language : Ukrainian
Default : Yes
Forced : No

Audio #2
ID : 3
Format : AC-3
Format/Info : Audio Coding 3
Mode extension : CM (complete main)
Format settings, Endianness : Big
Codec ID : A_AC3
Duration : 2h 8mn
Bit rate mode : Constant
Bit rate : 128 Kbps
Channel(s) : 2 channels
Channel positions : Front: L R
Sampling rate : 48.0 KHz
Bit depth : 16 bits
Compression mode : Lossy
Stream size : 118 MiB (1%)
Title : 2.0 @ 128 kbps [ICTV]
Language : Ukrainian
Default : No
Forced : No

Audio #3
ID : 4
Format :
Format/Info : Digital Theater Systems
Mode : 16
Format settings, Endianness : Big
Codec ID : A_DTS
Duration : 2h 8mn
Bit rate mode : Constant
Bit rate : 1 509 Kbps
Channel(s) : 6 channels
Channel positions : Front: L C R, Side: L R, LFE
Sampling rate : 48.0 KHz
Bit depth : 24 bits
Compression mode : Lossy
Stream size : 1.35 GiB (17%)
Title : 5.1 @ 1536 kbps
Language : English
Default : No
Forced : No

Text #1
ID : 5
Format : UTF-8
Codec ID : S_TEXT/UTF8
Codec ID/Info : UTF-8 Plain Text
Title : Forced
Language : Ukrainian
Default : Yes
Forced : No

Text #2
ID : 6
Format : UTF-8
Codec ID : S_TEXT/UTF8
Codec ID/Info : UTF-8 Plain Text
Title : Full
Language : English
Default : No
Forced : No

Text #3
ID : 7
Format : UTF-8
Codec ID : S_TEXT/UTF8
Codec ID/Info : UTF-8 Plain Text
Title : SDH
Language : English
Default : No
Forced : No

Menu
00:00:00.000 : en:00:00:00.000
00:06:46.531 : en:00:06:46.531
00:11:30.231 : en:00:11:30.231
00:15:41.607 : en:00:15:41.607
00:19:08.898 : en:00:19:08.898
00:23:29.074 : en:00:23:29.074
00:27:49.876 : en:00:27:49.876
00:32:01.253 : en:00:32:01.253
00:37:08.434 : en:00:37:08.434
00:40:50.406 : en:00:40:50.406
00:44:37.216 : en:00:44:37.216
00:47:39.690 : en:00:47:39.690
00:50:52.174 : en:00:50:52.174
00:55:17.606 : en:00:55:17.606
00:59:04.457 : en:00:59:04.457
01:03:04.781 : en:01:03:04.781
01:06:08.047 : en:01:06:08.047
01:11:14.103 : en:01:11:14.103
01:14:39.350 : en:01:14:39.350
01:17:36.318 : en:01:17:36.318
01:23:35.093 : en:01:23:35.093
01:26:06.953 : en:01:26:06.953
01:30:57.160 : en:01:30:57.160
01:35:15.376 : en:01:35:15.376
01:39:45.980 : en:01:39:45.980
01:44:18.002 : en:01:44:18.002
01:48:21.954 : en:01:48:21.954
01:54:02.711 : en:01:54:02.711
01:56:07.502 : en:01:56:07.502
02:00:26.177 : en:02:00:26.177
Порівняльні скріншоти
Source vs Encode





Скріншоти





720p by braveboy
Цитата:

* Source: Sherlock Holmes 2009 BluRay 1080p VC-1 -HD MA 5.1 [USA]

* Збережено оригінальні чаптери як на Blu-Ray


Особиста оцінка: 10 - без зайвих вагань рекомендую всім!


 Трекер:    Зареєстрований   

Завантажити / скачати фільм українською



відео для новачків



 Зареєстрований:   2014-04-21 19:11
 Розмір:   8.05 GB 
 Оцінка фільму:   9.8/10 (Голосів: 27)
   
Інші релізи
   Шерлок Холмс / Sherlock Holmes (2009) 1080p 2xUkr/Eng | Sub Eng [Captain]  1 / 0   14.69 GB   2014-04-20 18:05 
   Шерлок Холмс / Sherlock Holmes (2009) 720p-mini Drool  1 / 0   2.64 GB   2012-05-08 11:05 
   Шерлок Холмс / Sherlock Holmes (2009) DVD-9 Ukr/Rus/Eng wladi  1 / 0   6.16 GB   2010-04-13 20:26 
Dinamit777 
Свій


З нами з: 09.07.10
Востаннє: 12.01.12
Повідомлень: 55

2011-12-12 21:10  
Думав що фільм буде кращий за британського "Шерлока", серіал більше сподобався. Але і фільм так нічо.
Дякую за реліз. Якраз оптимальний розмір і якість відео.

leroykendall 
Модератор HD


З нами з: 03.01.11
Востаннє: 20.11.16
Повідомлень: 749

2012-03-08 07:40  
Порівняльні скріншоти з обох стовпчиків Source та Encode мають розмір 1280 x 720.
DiGen 
Модератор HD та координатор Команди HD
Модератор HD та координатор Команди HD


З нами з: 12.11.09
Востаннє: 24.06.13
Повідомлень: 1452

2012-03-08 09:10  
leroykendall, вони і будуть одинакові.
На 2-ій світлині, що з правої сторони, застосовано було фільтри, які зменшили шуми, але додали розмитості.

leroykendall 
Модератор HD


З нами з: 03.01.11
Востаннє: 20.11.16
Повідомлень: 749

2012-03-08 09:16  
DiGen
Ок. Зрозумів. Мене просто збило з понтилику ось це:
braveboy написано:
Source: Sherlock Holmes 2009 BluRay 1080p VC-1 -HD MA 5.1 [USA]

braveboy
Дякую за справді якісний реліз.

Віктор 
Відео Гуртом - субтитрування
Відео Гуртом - субтитрування


З нами з: 09.01.10
Востаннє: 09.12.16
Повідомлень: 8663

2012-03-08 14:27  
Почистив тему.
Seriy100293 
VIP


З нами з: 17.08.11
Востаннє: 04.09.16
Повідомлень: 307

2012-10-28 17:05  
Дайте золото, раз замінили файл роздачі!
braveboy 
Відео Гуртом - команда HD
Відео Гуртом - команда HD


З нами з: 15.06.10
Востаннє: 29.10.16
Повідомлень: 958

2012-10-29 01:34  
Seriy100293 написано:
Дайте золото, раз замінили файл роздачі!

зараз дам дожену і ще додам

taras1994 
Почесний оцифрувальник літератури


З нами з: 23.03.12
Востаннє: 30.11.16
Повідомлень: 5096

2012-10-29 01:36  
braveboy написано:
зараз дам дожену і ще додам

тоді реліз буде платиновим, і під час завантаження буде додавати рейтинг, Wide grin

braveboy 
Відео Гуртом - команда HD
Відео Гуртом - команда HD


З нами з: 15.06.10
Востаннє: 29.10.16
Повідомлень: 958

2012-10-29 01:56  
taras1994 написано:
тоді реліз буде платиновим, і під час завантаження буде додавати рейтинг,


 Happy

braveboy 
Відео Гуртом - команда HD
Відео Гуртом - команда HD


З нами з: 15.06.10
Востаннє: 29.10.16
Повідомлень: 958

2014-04-21 19:19  
оновлено додада укр. доріжка від ICTV
kenobi92 
Новенький


З нами з: 21.12.12
Востаннє: 14.10.16
Повідомлень: 1

2014-07-09 22:07  
Станьте будь ласка на роздачу
tribus 
VIP


З нами з: 22.10.14
Востаннє: 09.12.16
Повідомлень: 559

2016-12-02 00:21  


Роздачу відновлено!


Повернуто з ex.ua.

Ваш часовий пояс: GMT + 2 Години

Нова тема   Відповісти