Завантажити та скачати торренти українською


Ольга Богомолець - Ліні Костенко Con Amore /Гіацинтове Сонце/ (2CD) (2010) [FLAC] | Folk

Нові коментарі

Нова тема   Відповісти
Останній раз роздавалося Moo-Duck (2016-11-24)
Автор Повідомлення
nazarg 
Новенький


З нами з: 20.02.11
Востаннє: 09.05.11
Повідомлень: 7

2011-03-02 21:47  
Ольга Богомолець - Ліні Костенко Con Amore /Гіацинтове Сонце/ (2CD) (2010) [FLAC] | Folk



Стиль: Folk
Країна, місто: Україна, Київ
Видавець: Автор
Виконавці: Ольга Богомолець
Пісні:
    CD1 Гіацинтове сонце



    1. І знову пролог
    2. Осінній день, осінній день, осінній!
    3. В дні прожиті печально і просто...
    4. І не минає, не минає...
    5. Очима ти сказав мені- люблю...
    6. Чоловіче мій, запрягай коня...
    7. Хай буде легко. Дотиком пера
    8. Що в нас було...
    9. І Місячну сонату уже створив Бетховен...
    10. Двори стоять у хуртовині айстр
    11. І як тепер тебе забути
    12. Ти половець, ти правнук печеніга...
    13. Ті журавлі, і їх прощальні сурми...
    14. Недумано, негадано
    15. А що І я спочину на хвилинку
    16. Напитись голосу твого...

    Тривалість: 00:47:48
    log
    Exact Audio Copy V0.99 prebeta 5 from 4. May 2009

    EAC extraction logfile from 1. March 2011, 22:46

    Ольга Богомолець / Гіацинтове сонце

    Used drive : TSSTcorpCDRW/DVD TSL462D Adapter: 1 ID: 0

    Read mode : Secure
    Utilize accurate stream : Yes
    Defeat audio cache : Yes
    Make use of C2 pointers : No

    Read offset correction : 6
    Overread into Lead-In and Lead-Out : No
    Fill up missing offset samples with silence : Yes
    Delete leading and trailing silent blocks : No
    Null samples used in CRC calculations : Yes
    Used interface : Native Win32 interface for Win NT & 2000
    Gap handling : Appended to previous track

    Used output format : User Defined Encoder
    Selected bitrate : 768 kBit/s
    Quality : High
    Add ID3 tag : No
    Command line compressor : C:\Program Files\Exact Audio Copy\FLAC\FLAC.EXE
    Additional command line options : -8 -V -T "ARTIST=%a" -T "TITLE=%t" -T "ALBUM=%g" -T "DATE=%y" -T "TRACKNUMBER=%n" -T "GENRE=%m" -T "COMMENT=EAC FLAC -8" %s

    TOC of the extracted CD

    Track | Start | Length | Start sector | End sector
    ---------------------------------------------------------
    1 | 0:00.00 | 3:03.04 | 0 | 13728
    2 | 3:03.04 | 2:05.56 | 13729 | 23159
    3 | 5:08.60 | 2:43.35 | 23160 | 35419
    4 | 7:52.20 | 2:56.04 | 35420 | 48623
    5 | 10:48.24 | 2:51.61 | 48624 | 61509
    6 | 13:40.10 | 3:10.24 | 61510 | 75783
    7 | 16:50.34 | 2:26.09 | 75784 | 86742
    8 | 19:16.43 | 3:24.02 | 86743 | 102044
    9 | 22:40.45 | 2:49.49 | 102045 | 114768
    10 | 25:30.19 | 2:45.62 | 114769 | 127205
    11 | 28:16.06 | 3:46.51 | 127206 | 144206
    12 | 32:02.57 | 4:26.56 | 144207 | 164212
    13 | 36:29.38 | 3:17.51 | 164213 | 179038
    14 | 39:47.14 | 3:12.02 | 179039 | 193440
    15 | 42:59.16 | 2:46.02 | 193441 | 205892
    16 | 45:45.18 | 2:09.41 | 205893 | 215608

    Track 1

    Filename C:\Documents and Settings\Admin\Мои документы\01. Ольга Богомолець – І знову пролог.wav

    Pre-gap length 0:00:02.00

    Peak level 100.0 %
    Track quality 100.0 %
    Test CRC 32791B9E
    Copy CRC 32791B9E
    Accurately ripped (confidence 1) [521D875F]
    Copy OK

    Track 2

    Filename C:\Documents and Settings\Admin\Мои документы\02. Ольга Богомолець – Осінній день, осінній день, осінній!.wav

    Pre-gap length 0:00:02.00

    Peak level 100.0 %
    Track quality 100.0 %
    Test CRC EDF80D4A
    Copy CRC EDF80D4A
    Accurately ripped (confidence 1) [9B5F1CEC]
    Copy OK

    Track 3

    Filename C:\Documents and Settings\Admin\Мои документы\03. Ольга Богомолець – В дні прожиті печально і просто....wav

    Pre-gap length 0:00:02.00

    Peak level 100.0 %
    Track quality 100.0 %
    Test CRC 0E881AAB
    Copy CRC 0E881AAB
    Accurately ripped (confidence 1) [10F7B172]
    Copy OK

    Track 4

    Filename C:\Documents and Settings\Admin\Мои документы\04. Ольга Богомолець – І не минає, не минає....wav

    Pre-gap length 0:00:02.00

    Peak level 100.0 %
    Track quality 100.0 %
    Test CRC 0E43C5B0
    Copy CRC 0E43C5B0
    Accurately ripped (confidence 1) [0CC05FAB]
    Copy OK

    Track 5

    Filename C:\Documents and Settings\Admin\Мои документы\05. Ольга Богомолець – Очима ти сказав мені- люблю....wav

    Pre-gap length 0:00:02.00

    Peak level 100.0 %
    Track quality 100.0 %
    Test CRC 209FA452
    Copy CRC 209FA452
    Accurately ripped (confidence 1) [AAAB007B]
    Copy OK

    Track 6

    Filename C:\Documents and Settings\Admin\Мои документы\06. Ольга Богомолець – Чоловіче мій, запрягай коня....wav

    Pre-gap length 0:00:02.00

    Peak level 100.0 %
    Track quality 100.0 %
    Test CRC 0650607B
    Copy CRC 0650607B
    Accurately ripped (confidence 1) [F38728EC]
    Copy OK

    Track 7

    Filename C:\Documents and Settings\Admin\Мои документы\07. Ольга Богомолець – Хай буде легко. Дотиком пера.wav

    Pre-gap length 0:00:02.00

    Peak level 100.0 %
    Track quality 99.9 %
    Test CRC 9CC08B73
    Copy CRC 9CC08B73
    Accurately ripped (confidence 1) [54266DED]
    Copy OK

    Track 8

    Filename C:\Documents and Settings\Admin\Мои документы\08. Ольга Богомолець – Що в нас було....wav

    Pre-gap length 0:00:02.00

    Peak level 100.0 %
    Track quality 100.0 %
    Test CRC E6F80BE9
    Copy CRC E6F80BE9
    Accurately ripped (confidence 1) [B65A33CA]
    Copy OK

    Track 9

    Filename C:\Documents and Settings\Admin\Мои документы\09. Ольга Богомолець – І Місячну сонату уже створив Бетховен....wav

    Pre-gap length 0:00:02.00

    Peak level 100.0 %
    Track quality 99.9 %
    Test CRC C0E25AC6
    Copy CRC C0E25AC6
    Accurately ripped (confidence 1) [BECA1F1E]
    Copy OK

    Track 10

    Filename C:\Documents and Settings\Admin\Мои документы\10. Ольга Богомолець – Двори стоять у хуртовині айстр.wav

    Pre-gap length 0:00:02.00

    Peak level 99.3 %
    Track quality 100.0 %
    Test CRC 2D0FC5F5
    Copy CRC 2D0FC5F5
    Accurately ripped (confidence 1) [645EC5A7]
    Copy OK

    Track 11

    Filename C:\Documents and Settings\Admin\Мои документы\11. Ольга Богомолець – І як тепер тебе забути .wav

    Pre-gap length 0:00:02.00

    Peak level 100.0 %
    Track quality 100.0 %
    Test CRC 575DEAE1
    Copy CRC 575DEAE1
    Accurately ripped (confidence 1) [E93F1ECE]
    Copy OK

    Track 12

    Filename C:\Documents and Settings\Admin\Мои документы\12. Ольга Богомолець – Ти половець, ти правнук печеніга....wav

    Pre-gap length 0:00:02.00

    Peak level 100.0 %
    Track quality 100.0 %
    Test CRC 69E0FE65
    Copy CRC 69E0FE65
    Accurately ripped (confidence 1) [A3745758]
    Copy OK

    Track 13

    Filename C:\Documents and Settings\Admin\Мои документы\13. Ольга Богомолець – Ті журавлі, і їх прощальні сурми....wav

    Pre-gap length 0:00:02.00

    Peak level 100.0 %
    Track quality 100.0 %
    Test CRC AD6788B3
    Copy CRC AD6788B3
    Accurately ripped (confidence 1) [E372D7AC]
    Copy OK

    Track 14

    Filename C:\Documents and Settings\Admin\Мои документы\14. Ольга Богомолець – Недумано, негадано.wav

    Pre-gap length 0:00:02.00

    Peak level 100.0 %
    Track quality 100.0 %
    Test CRC 1F9C8DAF
    Copy CRC 1F9C8DAF
    Accurately ripped (confidence 1) [3FF2CE96]
    Copy OK

    Track 15

    Filename C:\Documents and Settings\Admin\Мои документы\15. Ольга Богомолець – А що І я спочину на хвилинку.wav

    Pre-gap length 0:00:02.00

    Peak level 100.0 %
    Track quality 99.9 %
    Test CRC 30162372
    Copy CRC 30162372
    Accurately ripped (confidence 1) [79517B34]
    Copy OK

    Track 16

    Filename C:\Documents and Settings\Admin\Мои документы\16. Ольга Богомолець – Напитись голосу твого....wav

    Pre-gap length 0:00:02.00

    Peak level 100.0 %
    Track quality 100.0 %
    Test CRC DA1AB550
    Copy CRC DA1AB550
    Accurately ripped (confidence 1) [56341D82]
    Copy OK

    All tracks accurately ripped

    No errors occurred

    End of status report
    CD2 По-Лицю-Дощ



    1. Я вранці голос горлиці люблю
    2. У світі злому і холодному...
    3. Між іншим
    4. Вечірнє сонце, дякую за день!
    5. В пустелі сизих вечорів...
    6. Умирають майстри...
    7. Погасли кострища стоянок
    8. Папороть
    9. Вже почалось, мабуть, мйбутнє
    10. Поезія згубила камертон
    11. Було нам важко і було нам зле
    12. Я, що прийшла у світ не для корид...
    13. Старесенька, іде по тій дорозі
    14. Осінній день березами почався

    Тривалість: 00:51:29
    log
    Exact Audio Copy V0.99 prebeta 5 from 4. May 2009

    EAC extraction logfile from 1. March 2011, 23:38

    Ольга Богомолець / По - Лицю - Дощ

    Used drive : TSSTcorpCDRW/DVD TSL462D Adapter: 1 ID: 0

    Read mode : Secure
    Utilize accurate stream : Yes
    Defeat audio cache : Yes
    Make use of C2 pointers : No

    Read offset correction : 6
    Overread into Lead-In and Lead-Out : No
    Fill up missing offset samples with silence : Yes
    Delete leading and trailing silent blocks : No
    Null samples used in CRC calculations : Yes
    Used interface : Native Win32 interface for Win NT & 2000
    Gap handling : Appended to previous track

    Used output format : User Defined Encoder
    Selected bitrate : 768 kBit/s
    Quality : High
    Add ID3 tag : No
    Command line compressor : C:\Program Files\Exact Audio Copy\FLAC\FLAC.EXE
    Additional command line options : -8 -V -T "ARTIST=%a" -T "TITLE=%t" -T "ALBUM=%g" -T "DATE=%y" -T "TRACKNUMBER=%n" -T "GENRE=%m" -T "COMMENT=EAC FLAC -8" %s

    TOC of the extracted CD

    Track | Start | Length | Start sector | End sector
    ---------------------------------------------------------
    1 | 0:00.00 | 3:05.60 | 0 | 13934
    2 | 3:05.60 | 3:41.07 | 13935 | 30516
    3 | 6:46.67 | 3:05.41 | 30517 | 44432
    4 | 9:52.33 | 2:24.41 | 44433 | 55273
    5 | 12:16.74 | 3:17.34 | 55274 | 70082
    6 | 15:34.33 | 3:20.49 | 70083 | 85131
    7 | 18:55.07 | 2:47.08 | 85132 | 97664
    8 | 21:42.15 | 2:51.69 | 97665 | 110558
    9 | 24:34.09 | 2:46.54 | 110559 | 123062
    10 | 27:20.63 | 3:37.49 | 123063 | 139386
    11 | 30:58.37 | 1:50.13 | 139387 | 147649
    12 | 32:48.50 | 2:00.50 | 147650 | 156699
    13 | 34:49.25 | 4:42.02 | 156700 | 177851
    14 | 39:31.27 | 3:36.55 | 177852 | 194106
    15 | 43:08.07 | 2:47.15 | 194107 | 206646
    16 | 45:55.22 | 1:43.25 | 206647 | 214396
    17 | 47:38.47 | 3:58.74 | 214397 | 232320

    Track 1

    Filename C:\Documents and Settings\Admin\Мои документы\01. Ольга Богомолець – Я вранці голос горлиці люблю.wav

    Pre-gap length 0:00:02.00

    Peak level 100.0 %
    Track quality 100.0 %
    Test CRC 3A175C57
    Copy CRC 3A175C57
    Accurately ripped (confidence 1) [4E46E28B]
    Copy OK

    Track 2

    Filename C:\Documents and Settings\Admin\Мои документы\02. Ольга Богомолець – У світі злому і холодному....wav

    Pre-gap length 0:00:02.00

    Peak level 100.0 %
    Track quality 100.0 %
    Test CRC 31966513
    Copy CRC 31966513
    Accurately ripped (confidence 1) [A1A3011C]
    Copy OK

    Track 3

    Filename C:\Documents and Settings\Admin\Мои документы\03. Ольга Богомолець – Між іншим.wav

    Pre-gap length 0:00:02.00

    Peak level 100.0 %
    Track quality 100.0 %
    Test CRC C0F217BE
    Copy CRC C0F217BE
    Accurately ripped (confidence 1) [36B73562]
    Copy OK

    Track 4

    Filename C:\Documents and Settings\Admin\Мои документы\04. Ольга Богомолець – Вечірнє сонце, дякую за день!.wav

    Pre-gap length 0:00:02.00

    Peak level 99.2 %
    Track quality 100.0 %
    Test CRC BE023ABD
    Copy CRC BE023ABD
    Accurately ripped (confidence 1) [1DEA313A]
    Copy OK

    Track 5

    Filename C:\Documents and Settings\Admin\Мои документы\05. Ольга Богомолець – В пустелі сизих вечорів....wav

    Pre-gap length 0:00:02.00

    Peak level 100.0 %
    Track quality 100.0 %
    Test CRC 5707D309
    Copy CRC 5707D309
    Accurately ripped (confidence 1) [35F28638]
    Copy OK

    Track 6

    Filename C:\Documents and Settings\Admin\Мои документы\06. Ольга Богомолець – Умирають майстри....wav

    Pre-gap length 0:00:02.00

    Peak level 100.0 %
    Track quality 100.0 %
    Test CRC 124A7449
    Copy CRC 124A7449
    Accurately ripped (confidence 1) [FD5AFFD7]
    Copy OK

    Track 7

    Filename C:\Documents and Settings\Admin\Мои документы\07. Ольга Богомолець – Погасли кострища стоянок.wav

    Pre-gap length 0:00:02.00

    Peak level 99.8 %
    Track quality 100.0 %
    Test CRC 2166B511
    Copy CRC 2166B511
    Accurately ripped (confidence 1) [A750D51A]
    Copy OK

    Track 8

    Filename C:\Documents and Settings\Admin\Мои документы\08. Ольга Богомолець – Папороть.wav

    Pre-gap length 0:00:02.00

    Peak level 100.0 %
    Track quality 100.0 %
    Test CRC 41B2B12D
    Copy CRC 41B2B12D
    Accurately ripped (confidence 1) [D6608CBB]
    Copy OK

    Track 9

    Filename C:\Documents and Settings\Admin\Мои документы\09. Ольга Богомолець – Вже почалось, мабуть, мйбутнє.wav

    Pre-gap length 0:00:02.00

    Peak level 100.0 %
    Track quality 99.9 %
    Test CRC BA1525A2
    Copy CRC BA1525A2
    Accurately ripped (confidence 1) [A75DF868]
    Copy OK

    Track 10

    Filename C:\Documents and Settings\Admin\Мои документы\10. Ольга Богомолець – Поезія згубила камертон.wav

    Pre-gap length 0:00:02.00

    Peak level 98.4 %
    Track quality 100.0 %
    Test CRC DD091DD5
    Copy CRC DD091DD5
    Accurately ripped (confidence 1) [237B2657]
    Copy OK

    Track 11

    Filename C:\Documents and Settings\Admin\Мои документы\11. Ольга Богомолець – Було нам важко і було нам зле.wav

    Pre-gap length 0:00:02.00

    Peak level 100.0 %
    Track quality 100.0 %
    Test CRC 51ED1808
    Copy CRC 51ED1808
    Accurately ripped (confidence 1) [45424576]
    Copy OK

    Track 12

    Filename C:\Documents and Settings\Admin\Мои документы\12. Ольга Богомолець – Я, що прийшла у світ не для корид....wav

    Pre-gap length 0:00:02.00

    Peak level 100.0 %
    Track quality 100.0 %
    Test CRC 057397E2
    Copy CRC 057397E2
    Accurately ripped (confidence 1) [D0A05C5C]
    Copy OK

    Track 13

    Filename C:\Documents and Settings\Admin\Мои документы\13. Ольга Богомолець – Старесенька, іде по тій дорозі.wav

    Pre-gap length 0:00:02.00

    Peak level 100.0 %
    Track quality 100.0 %
    Test CRC 02825579
    Copy CRC 02825579
    Accurately ripped (confidence 1) [95656476]
    Copy OK

    Track 14

    Filename C:\Documents and Settings\Admin\Мои документы\14. Ольга Богомолець – Осінній день березами почався.wav

    Pre-gap length 0:00:02.00

    Peak level 98.6 %
    Track quality 100.0 %
    Test CRC 38D63940
    Copy CRC 38D63940
    Accurately ripped (confidence 1) [A8EBDC02]
    Copy OK

    Track 15

    Filename C:\Documents and Settings\Admin\Мои документы\15. Ольга Богомолець – Моя любове! Я перед тобою.wav

    Pre-gap length 0:00:02.00

    Peak level 100.0 %
    Track quality 100.0 %
    Test CRC 71B982F0
    Copy CRC 71B982F0
    Accurately ripped (confidence 1) [63A226F4]
    Copy OK

    Track 16

    Filename C:\Documents and Settings\Admin\Мои документы\16. Ольга Богомолець – Одгородила доля шматок поля....wav

    Pre-gap length 0:00:02.00

    Peak level 92.9 %
    Track quality 100.0 %
    Test CRC AD516434
    Copy CRC AD516434
    Accurately ripped (confidence 1) [241CCB9E]
    Copy OK

    Track 17

    Filename C:\Documents and Settings\Admin\Мои документы\17. Ольга Богомолець – По-Лицю-Дощ.wav

    Pre-gap length 0:00:02.00

    Peak level 100.0 %
    Track quality 100.0 %
    Test CRC 198F634F
    Copy CRC 198F634F
    Accurately ripped (confidence 1) [AAE992E3]
    Copy OK

    All tracks accurately ripped

    No errors occurred

    End of status report

Тривалість: 01:39:17
Мова: українська
Аудіо-кодек: FLAC
Бітрейт: 900 кбіт/с
Джерело: Власний ріп
Додаткова інформація:
Тут Ольга Богомолець вперше – на відміну від трьох попередніх альбомів – співає не під гітару. Це не плюс і не мінус, просто звучить по-іншому, трохи незвично. Десь додає глибини, десь – м’якості, десь, навпаки, додає пульсації і робить паузи більш насиченими. Втім, головним інструментом все одно лишається – голос, інтонація. Недарма голос Ольги прозвали колись "оксамитовим" – так було, так є і тепер. Недарма її альбоми досить нелегко знайти – кожен з них стає справжнім подарунком для тих, хто любить і вміє слухати. Бо, зрештою, вона абсолютно точно – роздумує і розуміє, про що співає, і це чутно... Ясна річ, в такому випадку вірші мають велике значення – і Ольга завжди підходила до вибору відповідально. Ну а цього разу весь альбом – 2 диски, 33 пісні – присвячено творчості Ліни Костенко. І навіть не хочеться говорити про те, скільки в поезіях Ліни Костенко краси, любові, болю, розуму, пристрасті, споглядання.. Так, все це є тут. Але головне, мабуть, що вони – гранично чесні. І саме чесність здатна робити ці красу, біль, любов, розуміння – вагомими, глибокими, відчутними і важливими для інших. Для нас. І чи треба казати, що Ольга Богомолець співає саме чесно...


Якщо Ви справді бажаєте підтримати українське - після прослуховування, якщо музика вам сподобалась, придбайте ліцензійний диск. Підтримаймо вітчизняних виконавців!


Срібний реліз (на рейтинг впливає 50% завантаженого)
 Трекер:    Зареєстрований   

Завантажити / скачати українську музику



відео для новачків



 Зареєстрований:   2011-03-02 21:47
 Розмір:   601 MB 
 Оцінка музики:   10/10 (Голосів: 15)
   
ssTAss 
Модератор музики


З нами з: 05.07.08
Востаннє: 03.12.16
Повідомлень: 10930

2011-03-02 22:05  
поправив назву
nazarg написано:

Країна, місто:

Видавець:

Виконавці:

заповнити стрічки
nazarg написано:
Тривалість: 47:48хв. + 51:29хв.

написати тривалість обох сіді разом в форматі 01:23:45
nazarg написано:
Бітрейт:

поставити числове значення
nazarg написано:
Джерело:

заповнити
і додайте вміст лог-файлу під спойлер до кожної плити

nazarg 
Новенький


З нами з: 20.02.11
Востаннє: 09.05.11
Повідомлень: 7

2011-03-02 22:19  
Зробив
ssTAss 
Модератор музики


З нами з: 05.07.08
Востаннє: 03.12.16
Повідомлень: 10930

2011-03-02 22:25  
nazarg написано:
Тривалість: 01:23:45

це Ви так пожартували? Wide grin
написав для прикладу)))
прошу вказати реальний час
nazarg написано:
Джерело: УМКА

джерело - це звідки у Вас цей матеріал (власний ріп, інший трекер, файлообмінники)
так зрозумів, що альбом купили на Умці і це Ваш ріп з нього чи ні?
nazarg написано:
Зробив

для цього є пімпочка під печаткою (виправлено)

gattozebratto 
Новенький


З нами з: 02.01.10
Востаннє: 02.11.16
Повідомлень: 19

2011-03-02 22:33  
Дуже дякую, красно. Я давно шукаю цей збірник, ніде немає. Оперативно! Чудово, що диск вже у продажу!
deepfree 
VIP


З нами з: 11.02.09
Востаннє: 03.12.16
Повідомлень: 263

2011-03-02 23:08  
скани дисків що йшли до книги Гіацинтове сонце


Lev 
VIP


З нами з: 14.10.09
Востаннє: 28.11.16
Повідомлень: 1819

2011-03-03 04:35  
дуже потрібна роздача, данкешон!
inki 
VIP


З нами з: 24.10.09
Востаннє: 13.10.16
Повідомлень: 380

2011-03-03 08:24  
ВЕЛИКЕ ДЯКУЮ!!! О.Богомолець переслуховую вже давно. Прослухаю і це. Дам комент
nazarg 
Новенький


З нами з: 20.02.11
Востаннє: 09.05.11
Повідомлень: 7

2011-03-04 00:17  
Радий що придалось. Правда за мною технічна сторона. Основним шанувальником є моя дружина Мирослава, завдяки їй ці диски опинились дома.
inki 
VIP


З нами з: 24.10.09
Востаннє: 13.10.16
Повідомлень: 380

2011-03-07 09:04  
nazarg

Ще раз говорю спасибі! Після прослуховування отримав масу задоволення! Хоч мусів конвертувати в 320 бо в машині FLAC не йде.

ssTAss 
Модератор музики


З нами з: 05.07.08
Востаннє: 03.12.16
Повідомлень: 10930

2011-03-07 14:44  
inki написано:
Хоч мусів конвертувати в 320 бо в машині FLAC не йде

то може зробите реліз в мр3?

nazarg 
Новенький


З нами з: 20.02.11
Востаннє: 09.05.11
Повідомлень: 7

2011-03-07 23:49  
ssTAss
в середу можу зробити mp3, якщо до цього часу ніхто не порухається

ssTAss 
Модератор музики


З нами з: 05.07.08
Востаннє: 03.12.16
Повідомлень: 10930

2011-03-08 00:06  
nazarg написано:
в середу можу зробити mp3, якщо до цього часу ніхто не порухається

домовились) (трошки підправлю цей реліз і візьмете за взірець)
чекаємо на нові релізи

досліджувач 
Новенький


З нами з: 19.01.12
Востаннє: 20.04.12
Повідомлень: 4

2012-01-22 19:19  
Щиро вдячний за цей матеріал. Скачав. Із задоволенням слухаємо сім"єю.
Ваш часовий пояс: GMT + 2 Години

Нова тема   Відповісти