Завантажити та скачати торренти українською


Наталка Карпа - Любов врятує світ (2001) [FLAC] | Pop

Нові коментарі

Нова тема   Відповісти
Останній раз роздавалося natashelka (2016-12-02)
Автор Повідомлення
ssTAss 
Модератор музики


З нами з: 05.07.08
Востаннє: 03.12.16
Повідомлень: 10930

2011-03-02 19:24  
Наталка Карпа - Любов врятує світ (2001) [FLAC] | Pop



Стиль: Pop
Країна, місто: Україна, Добромиль-Львів
Сайти: Офіційний сайт

Видавець: Rostok Records
Виконавці:
Заслужена артистка України Карпа Наталія Семенівна
Пісні:
    1. Я ніколи не зможу забути тебе (музика: А. Кривута слова: А. Кривута)
    2. Серце крижане (музика: А. Кривута слова: А. Кривута)
    3. Ангеле мій (музика: О. Албуп слова: З. Філіпчук)
    4. Я за тобою шаленію (музика: А. Кривута слова: А. Кривута)
    5. Сеньйорита (музика: О. Баран слова: О. Садова)
    6. Милий (музика: Н. Карпа слова: Н. Карпа)
    7. У долі - своя весна (музика: В. Івасюк слова: Ю. Рибчинський)
    8. Я - твоє крило (музика: В. Івасюк слова: Р. Кудлик)
    9. Щороку - і весна, і осінь (музика: І. Білозір слова: В. Стельмах)
    10. Колядка "Нова радість стала"
    11. Хто ти такий? (музика: А. Кривута слова: А. Кривута)
    12. Художник (музика: О. Баран слова: А. Кривута)
    13. Повернись назад (музика: О. Баран слова: О. Садова)
    14. Я збережу (музика: Н. Карпа слова: О. Садова)
    15. Любов врятує світ (музика: Н. Карпа слова: Н. Карпа)
log

Exact Audio Copy V0.99 prebeta 5 from 4. May 2009

Звіт EAC про видобування, котре виконане 2. березня 2011, 0:28

Наталка Карпа / Любов врятує світ

Дисковод: SlimtypeDVD A DS8A1H Adapter: 0 ID: 0

Режим читання : Точний
Використати точний потік : Так
Вимкнути аудіо кеш : Так
Застосувати мітки C2 : Ні

Корекція зміщення при читанні : 594
Екстрачитання областей Lead-in і Lead-out : Ні
Заповнення пропущених семплів тишею : Так
Видалення блоків з тишею на початку і кінці : Ні
При вирахуванні CRC використовувались нульові семпли : Так
Використаний інтерфейс : 'Рідний' Win32-інтерфейс для Win NT/2000

Застосований вихідний формат : Кодер Користувача
Обраний бітрейт : 1024 kBit/s
Якість : Високий
Додати тег ID3 : Так
Компресор командного рядка : C:\Program Files\Exact Audio Copy\Flac\flac.exe
Додаткові параметри командного рядка : -8 -V -T "ARTIST=%a" -T "TITLE=%t" -T "ALBUM=%g" -T "DATE=%y" -T "TRACKNUMBER=%n" -T "GENRE=%m" -T "COMMENT=EAC FLAC -8" %s

TOC видобутого CD

Трек | Старт | Довжина | Початковий сектор | Кінцевий сектор
------------------------------------------------------------------
1 | 0:00.00 | 3:45.14 | 0 | 16888
2 | 3:45.14 | 3:38.16 | 16889 | 33254
3 | 7:23.30 | 4:07.37 | 33255 | 51816
4 | 11:30.67 | 3:42.12 | 51817 | 68478
5 | 15:13.04 | 3:15.69 | 68479 | 83172
6 | 18:28.73 | 3:56.25 | 83173 | 100897
7 | 22:25.23 | 4:14.45 | 100898 | 119992
8 | 26:39.68 | 3:29.16 | 119993 | 135683
9 | 30:09.09 | 4:14.68 | 135684 | 154801
10 | 34:24.02 | 3:38.38 | 154802 | 171189
11 | 38:02.40 | 4:16.43 | 171190 | 190432
12 | 42:19.08 | 3:33.15 | 190433 | 206422
13 | 45:52.23 | 3:42.18 | 206423 | 223090
14 | 49:34.41 | 4:00.55 | 223091 | 241145
15 | 53:35.21 | 4:30.37 | 241146 | 261432

Статус діапазону і помилки

Обраний діапазон

Ім'я файлу C:\Тимчасове\Music\Наталка Карпа\Наталка Карпа - Любов врятує світ.wav

Піковий рівень 98.8 %
Якість діапазону 100.0 %
CRC копії 9DA48AAB
Копіювання... OK

Помилки не траплялися

Кінець звіту
Тривалість: 00:58:06
Мова: українська
Аудіо-кодек: FLAC
Бітрейт: 1007 кб/с
Джерело: CD (власний ріп.. в роздачі присутні скани (вірніше, фотки) )
Додаткова інформація:
Приємно презентувати приємних людей – от як цього разу. Судячи зі всього, Наталка Карпа є особою творчою і достатньо талановитою, щоб зацікавити. Адже вона не просто виконавиця із виразним голосом і темпераментною манерою, хоча вистачило б і цього. Як бачите, на першому ж альбомі вона випробовує свої сили і в якості автора музики, і як автор слів. Вдала спроба. І, хоча особисто я не став би проказувати словами головні свої переконання, але назва цього альбому цілком їм відповідає. І я гадаю, що то є дуже добре, коли молоде покоління дійсно приймає цю правду про любов. Бо про подібні речі не потрібно навіть розмірковувати – їх треба здійснювати. І чом би не з допомогою подібних пісень? Стосовно ж музики альбому скажу, що вона органічно підтримує ліричний настрій, заданий віршами. Легка, танцювальна, вона не є пустою – навпаки, насиченою. І тому в ній дружньо співіснують мотиви гірського фольклору та, наприклад, запальної самби. А такі речі приємно помічати – чи не так?


Якщо Ви справді бажаєте підтримати українське - після прослуховування, якщо музика вам сподобалась,
придбайте ліцензійний диск.
Підтримаймо вітчизняних виконавців!


Срібний реліз (на рейтинг впливає 50% завантаженого)
 Трекер:    Зареєстрований   

Завантажити / скачати українську музику



відео для новачків



 Зареєстрований:   2011-03-02 19:24
 Розмір:   422 MB 
 Оцінка музики:   7.9/10 (Голосів: 13)
   
civ 
VIP


З нами з: 16.02.11
Востаннє: 02.12.16
Повідомлень: 428

2012-05-12 16:34  
Скани обкладинок видання 2004 року


ssTAss 
Модератор музики


З нами з: 05.07.08
Востаннє: 03.12.16
Повідомлень: 10930

2012-05-12 17:14  
civ написано:
Скани обкладинок

а диск від галрекодс
в мене від ростокрекордс
дякую за скани (хоча подивився, мої фотки нічим не гірші)

civ 
VIP


З нами з: 16.02.11
Востаннє: 02.12.16
Повідомлень: 428

2012-05-12 19:31  
Точно! Згадав. Я сканував перевидання Гал рекордс від 2004 року.
Ваш часовий пояс: GMT + 2 Години

Нова тема   Відповісти