Завантажити та скачати торренти українською


Veseli Muzyky - From Kiev to the Black Sea (Folk Music From Ukraine) (2006) [FLAC] | Folk

Нові коментарі

Нова тема   Відповісти
Останній раз роздавалося CreaUa (2016-12-05)
Автор Повідомлення
deggy 
Новенький


З нами з: 16.02.11
Востаннє: 03.11.16
Повідомлень: 7

2011-03-02 09:00  
Veseli Muzyky - From Kiev to the Black Sea (Folk Music From Ukraine) (2006) [FLAC] | Folk



Стиль: Folk, Instrumental
Країна, місто: Україна, Київ
Сайти: Офіційний сайт
Видавець: ARC Music
Пісні:

    01. Василечку
    02. Весела гребіночка
    03. Ой чорна я...
    04. Полька-павка
    05. Горішки
    06. Весільні мелодії
    07. Коломийки
    08. Варіації на українські народні теми
    09. Тече вода каламутна
    10. Козачок
    11. Сухая верба
    12. Весільна полька
    13. Горлиця
    14. Коломийки для дводенцівки
    15. Гандзю-гандзю
    16. Полька-пікколо

Тривалість: 00:41:36
Мова: українська
Аудіо-кодек: FLAC
Бітрейт: 962 кб/с
Джерело: інтернет
Додаткова інформація:

log
Exact Audio Copy V0.99 prebeta 4 from 23. January 2008

Отчёт EAC об извлечении, выполненном 27. июля 2009, 17:24

Various / From Kiev to the Black Sea

Дисковод: MATSHITADVD-RAM UJ-852S Adapter: 0 ID: 0

Режим чтения : Достоверность
Использование точного потока : Да
Отключение кэша аудио : Да
Использование указателей C2 : Нет

Коррекция смещения при чтении : 102
Способность читать области Lead-in и Lead-out : Нет
Заполнение пропущенных сэмплов тишиной : Да
Удаление блоков с тишиной в начале и конце : Нет
При вычислениях CRC использовались нулевые сэмплы : Да
Интерфейс : Встроенный Win32-интерфейс для Win NT/2000

Выходной формат : Внутренние WAV-операции
Формат сэмплов : 44.100 Гц; 16 бит; стерео
Смещение при сжатии : 0

TOC извлечённого CD

Трек | Старт | Длительность | Начальный сектор | Конечный сектор
---------------------------------------------------------------------
1 | 0:00.00 | 1:40.45 | 0 | 7544
2 | 1:40.45 | 3:15.15 | 7545 | 22184
3 | 4:55.60 | 2:36.60 | 22185 | 33944
4 | 7:32.45 | 2:11.45 | 33945 | 43814
5 | 9:44.15 | 2:21.30 | 43815 | 54419
6 | 12:05.45 | 2:47.00 | 54420 | 66944
7 | 14:52.45 | 1:50.00 | 66945 | 75194
8 | 16:42.45 | 3:56.60 | 75195 | 92954
9 | 20:39.30 | 2:56.00 | 92955 | 106154
10 | 23:35.30 | 3:07.30 | 106155 | 120209
11 | 26:42.60 | 3:11.67 | 120210 | 134601
12 | 29:54.52 | 1:43.00 | 134602 | 142326
13 | 31:37.52 | 2:19.22 | 142327 | 152773
14 | 33:56.74 | 2:36.60 | 152774 | 164533
15 | 36:33.59 | 3:03.52 | 164534 | 178310
16 | 39:37.36 | 1:59.00 | 178311 | 187235

Характеристики диапазона извлечения и сообщения об ошибках

Выбранный диапазон

Имя файла C:\Users\Igot\Music\From Kiev to the Black Sea\Various - From Kiev to the Black Sea.wav

Пиковый уровень 98.9 %
Качество диапазона 99.9 %
CRC копии 30789154
Копирование... OK

Ошибок не произошло

Конец отчёта


Якщо Ви справді бажаєте підтримати українське - після прослуховування, якщо музика вам сподобалась, придбайте ліцензійний диск. Підтримаймо вітчизняних виконавців!


Срібний реліз (на рейтинг впливає 50% завантаженого)
 Трекер:    Зареєстрований   

Завантажити / скачати українську музику



відео для новачків



 Зареєстрований:   2011-03-02 09:00
 Розмір:   287 MB 
 Оцінка музики:   10/10 (Голосів: 1)
   
ssTAss 
Модератор музики


З нами з: 05.07.08
Востаннє: 05.12.16
Повідомлень: 10939

2011-03-02 18:24  
поправив назву і лог взяв під спойлер

deggy написано:
Країна, місто: Україна

дописуєм Київ
deggy написано:
Сайти:

http://www.muziki.com.ua/index.html
Код:
[url=http://www.muziki.com.ua/index.html][b]Офіційний сайт[/b][/url]

після написати стрічку
Видавець: ARC Music
далі можна виконавців перелічити
deggy написано:

Василечку

Весела гребіночка

Ой чорна я..

перед треками поставте нумерацію
deggy написано:
Бітрейт: кб/с

потрібно поставити числове значення
і після цього стрічку "Джерело"
(звідки у Вас цей матеріал)

deggy 
Новенький


З нами з: 16.02.11
Востаннє: 03.11.16
Повідомлень: 7

2011-03-03 00:05  
яким чином в додаткову інформацію вложити відео?
ssTAss 
Модератор музики


З нами з: 05.07.08
Востаннє: 05.12.16
Повідомлень: 10939

2011-03-03 00:13  
deggy написано:
яким чином в додаткову інформацію вложити відео?

відео нікуди не треба вкладати
просто так навів, аби мали уявлення про гурт
(краще перенесу з того повідомлення сюди) Wink (2)



Додано через 4 хвилини 54 секунди:

ще одне
чому в описі 17 треків, а в лог-файлі 16?
та й з тривалістю якісь негаразди

Ваш часовий пояс: GMT + 2 Години

Нова тема   Відповісти