Завантажити та скачати торренти українською


Про всіх на світі (1984)

Нові коментарі

Нова тема   Відповісти
Автор Повідомлення
Тирік 
VIP


З нами з: 06.04.09
Востаннє: 17.09.13
Повідомлень: 909

2011-02-25 15:02  
Про всіх на світі (1984)


Жанр: анімація, дитячий, музичний
Країна: УРСР
Кіностудія / кінокомпанія: Київнаукфільм
Режисер: Є. Пружанський
Автор сценарію: Б. Заходер
Композитор: А. Осадчийс
Ролі озвучили: Б. Брондуков, Т. Тимошко, Л. Ігнатенко, Л. Логійко, Л. Томашевська, Т. Горобець, С. Муравицька, а також дитячий хор клубу Київського станкозаводу


Сюжет:
Песик забажав, щоб зникли усі коти, що і здійснилося, але вони виявилися дуже потрібними...

Тривалість: 00:09:54
Якість:
Відео:
кодек:
розмір кадру: 720 x 544
бітрейт: 1 999 Kб/с
титри: українські

Аудіо:
мова: українська
переклад: оригінал
кодек: АС-3 2.0
бітрейт: 224 Кбіт/сек

MediaINFO

Format : AVI
Format/Info : Audio Video Interleave
File size : 158 MiB
Duration : 9mn 54s
Overall bit rate : 2 233 Kbps
Writing application : VirtualDubMod 1.5.10.2 (build 2540/release)
Writing library : VirtualDubMod build 2540/release
Video #0
ID : 0
Format : MPEG-4 Visual
Format profile : [email protected]
Format settings, BVOP : Yes
Format settings, QPel : Yes
Format settings, GMC : 3 warppoints
Format settings, Matrix : Default (H.263)
Codec ID :
Codec ID/Hint :
Duration : 9mn 54s
Bit rate : 1 999 Kbps
Width : 720 pixels
Height : 544 pixels
Display aspect ratio : 4:3
Frame rate : 25.000 fps
Resolution : 24 bits
Colorimetry : 4:2:0
Scan type : Progressive
Bits/(Pixel*Frame) : 0.204
Stream size : 142 MiB (90%)
Writing library : 1.2.1 (UTC 2008-12-04)
Audio #1
ID : 1
Format : AC-3
Format/Info : Audio Coding 3
Codec ID : 2000
Duration : 9mn 54s
Bit rate mode : Constant
Bit rate : 224 Kbps
Channel(s) : 2 channels
Channel positions : L R
Sampling rate : 48.0 KHz
Stream size : 15.9 MiB (10%)
Alignment : Aligned on interleaves
Interleave, duration : 40 ms (1.00 video frame)
Interleave, preload duration : 512 ms
ScreenSHOT












Джерело: &

Якщо Ви справді бажаєте підтримати українське - після перегляду, якщо мультфільм вам сподобався, придбайте ліцензійний диск.
Підтримаймо вітчизняних аніматорів і видавців!
Замовити диск можна ТУТ!


Золотий реліз (завантажене не впливає на рейтинг)
 Трекер:    Зареєстрований   

Завантажити / скачати український мультфільм



відео для новачків



 Зареєстрований:   2011-02-25 15:02
 Розмір:   158 MB 
 Оцінка мультфільму:   9.9/10 (Голосів: 86)
   
jam79 
Відео Гуртом - спорт
Відео Гуртом - спорт


З нами з: 27.04.09
Востаннє: 06.12.16
Повідомлень: 278

2011-02-27 23:44  
Гарний мультфільм, дякую.
PetroT 
Новенький


З нами з: 07.04.10
Востаннє: 12.11.16
Повідомлень: 2

2011-02-28 08:41  
Дякую за цей чудовий мультфільм мого дитинства. Тепер і мій синочок має можливість його побачити. :-)
nira_82 
Новенький


З нами з: 04.03.11
Востаннє: 13.06.15
Повідомлень: 1

2011-03-04 12:45  
Щиро дякую за цей чудовий мультик українською мовою!!! Скільки не намагалась знайти, натрапляла тільки на російський переклад. І тут така знахідка!!!! Безмежно дякую!!! :-)))
неяая 
Новенький


З нами з: 08.04.11
Востаннє: 11.04.11
Повідомлень: 1

2011-04-08 22:48  
А як скачувати - велика таємниця. Куди тиснути, панове?
art2cool 
Новенький


З нами з: 28.12.09
Востаннє: 05.06.12
Повідомлень: 3

2011-09-15 17:56  
Щиро вам вдячний!
kurbon 
Новенький


З нами з: 11.09.09
Востаннє: 19.05.15
Повідомлень: 10

2011-10-21 21:59  
Дякую. Підспівували всією родиною.
Nin4uk 
Новенький


З нами з: 13.09.12
Востаннє: 13.09.12
Повідомлень: 2

2012-09-13 10:56  
Дякую Вам за гарний мультик.
-Mr-George- 
Новенький


З нами з: 04.12.12
Востаннє: 21.11.13
Повідомлень: 5

2013-02-02 21:40  
Дякуююююююююююююююююююююююююююю!)))))))))
p.vakula2012 
Новенький


З нами з: 21.02.13
Востаннє: 19.05.16
Повідомлень: 16

2013-08-14 16:33  
Колись бачив йго по телику, треба доці в колекцію скачати. Дякую !
snezhka7777 
Новенький


З нами з: 30.09.11
Востаннє: 08.02.15
Повідомлень: 3

2013-08-16 22:46  
Переглядаю і плачу. Від щастя. Дуже дякую Happy
Віктор 
Відео Гуртом - субтитрування
Відео Гуртом - субтитрування


З нами з: 09.01.10
Востаннє: 07.12.16
Повідомлень: 8663

2014-10-27 20:41  
Тирік написано:
Л. Лорійко

Логійко. https://www.youtube.com/watch?v=JiqSFTpwJbE&feature=youtu.be 23 секунда.

Ваш часовий пояс: GMT + 2 Години

Нова тема   Відповісти