Завантажити та скачати торренти українською


Оксана Білозір - Нові та найкращі (+2 нових суперхіта) (2003) [APE] | Pop

Нові коментарі

Нова тема   Відповісти
Автор Повідомлення
ssTAss 
Модератор музики


З нами з: 05.07.08
Востаннє: 06.12.16
Повідомлень: 10946

2011-02-23 22:53  
Оксана Білозір - Нові та найкращі (+2 нових суперхіта) (2003) [APE] | Pop



Стиль: Pop
Країна, місто: Україна, смт Смига (Дубнівський район, Рівн. обл.)
Сайти: Офіційний сайт
Видавець: NAC
Виконавці:
Білозір (Розумкевич) Оксана Володимирівна
Пісні:
    1. Очі Волошкові (музика: Г. Кривута слова: Г. Кривута)
    2. Горобина ніч (музика: О. Макаревич слова: Л. Золотоноша)
    3. Батьківське жито (музика: І. Білозір слова: Б. Стельмах)
    4. Чарівна бойківчанка (музика: О. Сердюк слова: М. Воньо)
    5. Сторона моя (музика: Л. Остапенко слова: М. Ткач)
    6. Україночка (музика: Г. Татарченко слова: А. Демиденко)
    7. Ой, зелене жито, зелене (слова: українська народна пісня)
    8. Ти, тільки ти (музика: І. Кирилін слова: Ф. Млинченко)
    9. Розпитаю про любов (музика: І. Білозір слова: Б. Стельмах)
    10. Пісня Роксолани (музика: А. Святогоров слова: С. Галябарда)
    11. Остання ніч кохання (музика: П. Зібров слова: Ю. Рибчинський)
    12. Лелеки (музика: М. Ципердюк слова: М. Ципердюк)
    13. Пшеничне перевесло (музика: І. Білозір слова: Б. Стельмах)
    14. Пане Господарю
log

Exact Audio Copy V0.99 prebeta 4 from 23. January 2008

Отчёт EAC об извлечении, выполненном 8. февраля 2009, 13:05

Оксана Білозір / Нові та найкращі

Дисковод: HL-DT-STDVDRAM GSA-4167B Adapter: 0 ID: 0

Режим чтения : Достоверность
Использование точного потока : Да
Отключение кэша аудио : Да
Использование указателей C2 : Нет

Коррекция смещения при чтении : 667
Способность читать области Lead-in и Lead-out : Нет
Заполнение пропущенных сэмплов тишиной : Да
Удаление блоков с тишиной в начале и конце : Нет
При вычислениях CRC использовались нулевые сэмплы : Да
Интерфейс : Встроенный Win32-интерфейс для Win NT/2000

Выходной формат : Внутренние WAV-операции
Формат сэмплов : 44.100 Гц; 16 бит; стерео

TOC извлечённого CD

Трек | Старт | Длительность | Начальный сектор | Конечный сектор
---------------------------------------------------------------------
1 | 0:00.00 | 3:30.02 | 0 | 15751
2 | 3:30.02 | 4:24.56 | 15752 | 35607
3 | 7:54.58 | 3:28.25 | 35608 | 51232
4 | 11:23.08 | 4:06.10 | 51233 | 69692
5 | 15:29.18 | 4:00.47 | 69693 | 87739
6 | 19:29.65 | 4:22.22 | 87740 | 107411
7 | 23:52.12 | 3:18.13 | 107412 | 122274
8 | 27:10.25 | 3:28.14 | 122275 | 137888
9 | 30:38.39 | 4:04.46 | 137889 | 156234
10 | 34:43.10 | 4:04.61 | 156235 | 174595
11 | 38:47.71 | 4:11.11 | 174596 | 193431
12 | 42:59.07 | 3:36.04 | 193432 | 209635
13 | 46:35.11 | 3:42.66 | 209636 | 226351
14 | 50:18.02 | 3:54.18 | 226352 | 243919

Характеристики диапазона извлечения и сообщения об ошибках

Выбранный диапазон

Имя файла E:\Bilozir Novi\Оксана Білозір - Нові та найкращі.wav

Пиковый уровень 98.8 %
Качество диапазона 99.9 %
CRC копии 6F8C39FD
Копирование... OK

Ошибок не произошло

Конец отчёта
Тривалість: 00:54:12
Мова: українська
Аудіо-кодек: APE
Бітрейт: 916 кб/с
Джерело: інтернет
Додаткова інформація:
Оксані Білозір, гадаю, давно вже не треба доводити своє право на місце під сонцем. І на українській естраді це місце – далеко не останнє. Про це кажуть навіть просто прізвища людей, які з нею співпрацюють – Кривута, Ткач, Татарченко, Зібров, Рибчинський і т.д. В Україні ці люди відомі дуже добре, і будь-кому свої пісні вони не віддають. Тому хто-хто, а Оксана Білозір має повне право на видання збірки найкращих пісень. Бо ж в неї за плечима чимала вже кількість потужних українських хітів. Чого варта одна тільки „Україночка” в її виконанні, або „Ой, зелене жито, зелене” – сучасна класика української естрадної пісні. Взагалі, маючи кільканадцять мільйонів прихильників в Україні та за її межами, можна було б і розслабитись – але ні. Постійні ефіри, концерти і, як результат – кількість її слухачів тільки зростає. Що ж, залишається тільки побажати їй подальших успіхів під цим сонцем.


Якщо Ви справді бажаєте підтримати українське - після прослуховування, якщо музика вам сподобалась,
придбайте ліцензійний диск.
Підтримаймо вітчизняних виконавців!


Срібний реліз (на рейтинг впливає 50% завантаженого)
 Трекер:    Зареєстрований   

Завантажити / скачати українську музику



відео для новачків



 Зареєстрований:   2011-02-23 22:53
 Розмір:   355 MB 
 Оцінка музики:   8.4/10 (Голосів: 17)
   
malako 
Новенький


З нами з: 25.03.16
Востаннє: 04.12.16
Повідомлень: 2

2016-11-23 11:38  
Провів спектральний аналіз в Sound Forge Pro 11.0 і виявилось, що треки 3, 7, 9, 12 мають чітко виражену "сходинку" в області високих частот. А це означає, що дані треки були конвертовані в ape-формат з mp3-формату і їх якість не вища за якість у mp3-форматі.
Прикро... Sad (1)

ssTAss 
Модератор музики


З нами з: 05.07.08
Востаннє: 06.12.16
Повідомлень: 10946

2016-11-23 22:59  
malako написано:
Прикро...

мені також, але всі претензії до видавця
p.s. потім викладу лог перевірки на якість

Ваш часовий пояс: GMT + 2 Години

Нова тема   Відповісти