Завантажити та скачати торренти українською


Борис Гмиря - Колекція (5 альбомів) (2001-2005) [FLAC] | Folk / Opera

Нові коментарі

Нова тема   Відповісти
Автор Повідомлення
civ 
VIP


З нами з: 16.02.11
Востаннє: 09.12.16
Повідомлень: 429

2011-02-23 22:27  
Борис Гмиря - Колекція (5 альбомів) (2001-2005) [FLAC] | Folk / Opera


Стиль: Folk / Opera
Країна, місто: Україна, Лебедин
Сайти: Офіційний сайт
Виконавці: Борис Гмиря
Великому Кобзареві (2001)


Стиль: Folk / Opera
Видавець: JRC
Пісні:
    01. Учітеся, брати мої (муз. М.Лисенка, вірші Т.Шевченка)
    02. Чого мені тяжко (муз. М.Лисенка, вірші Т.Шевченка)
    03. За думою дума (муз. Я.Степового, вірші Т.Шевченка)
    04. Сонце заходить (муз. Я.Степового, вірші Т.Шевченка)
    05. Зацвіла в долині червона калина (муз. Я.Степового, вірші Т.Шевченка)
    06. Така її доля (обр. В.Заремби, вірші Т.Шевченка)
    07. Дума волоха (муз. Ю.Мейтуса, вірші Т.Шевченка)
    08. Реве та стогне Дніпр широкий (муз. В.Костенко, вірші Т.Шевченка)
    09. Думи мої (муз. М.Лисенка, вірші Т.Шевченка)
    10. Гей, літа орел (муз. М.Лисенка, вірші Т.Шевченка)
    11. Зоре моя вечірняя (муз. народна, вірші Т.Шевченка)
    12. Дивлюсь я на яснії зорі (муз. К.Стеценка, вірші Л.Українки)
    13. Безмежнеє поле (муз. М.Лисенка, вірші І.Франка)
    14. Дивлюсь я на небо (муз. М.Кропівницького, вірші М.Петренка)
    15. Сміються, плачуть солов'ї (обр. Г.Жуковського, вірші О.Олеся)
    16. Ой не цвіти буйним цвітом (укр. народна пісня)
    17. Вечір на дворі (обр. П.Глушкова)
    18. Ой чого ти дубе (пісня І.Сірка)
    19. Од села до села (муз. Ю.Мейтуса)
    20. Мені однаково (муз. М.Лисенка, вірші Т.Шевченка)
    21. Заповіт (обр. Г.Гладкого, вірші Т.Шевченка)

Тривалість: 01:05:45
Мова: українська
Аудіо-кодек: FLAC
Бітрейт: 428 кб/с
Джерело: власний ріп
Тип ріпу: image+CUE+обкладинки
EAC log

Exact Audio Copy V1.0 beta 2 from 29. April 2011

EAC extraction logfile from 12. August 2011, 21:55

Борис Гмиря / Великому Кобзареві

Used drive : Optiarc DVD RW AD-7530B Adapter: 0 ID: 0

Read mode : Secure
Utilize accurate stream : Yes
Defeat audio cache : Yes
Make use of C2 pointers : No

Read offset correction : 6
Overread into Lead-In and Lead-Out : No
Fill up missing offset samples with silence : Yes
Delete leading and trailing silent blocks : No
Null samples used in CRC calculations : Yes
Used interface : Native Win32 interface for Win NT & 2000

Used output format : Internal WAV Routines
Sample format : 44.100 Hz; 16 Bit; Stereo

TOC of the extracted CD

Track | Start | Length | Start sector | End sector
---------------------------------------------------------
1 | 0:00.00 | 3:23.52 | 0 | 15276
2 | 3:23.52 | 2:07.22 | 15277 | 24823
3 | 5:30.74 | 3:12.61 | 24824 | 39284
4 | 8:43.60 | 3:27.22 | 39285 | 54831
5 | 12:11.07 | 3:06.64 | 54832 | 68845
6 | 15:17.71 | 5:13.28 | 68846 | 92348
7 | 20:31.24 | 2:29.69 | 92349 | 103592
8 | 23:01.18 | 2:33.67 | 103593 | 115134
9 | 25:35.10 | 3:32.01 | 115135 | 131035
10 | 29:07.11 | 3:02.30 | 131036 | 144715
11 | 32:09.41 | 3:41.13 | 144716 | 161303
12 | 35:50.54 | 2:07.34 | 161304 | 170862
13 | 37:58.13 | 1:13.66 | 170863 | 176403
14 | 39:12.04 | 4:21.37 | 176404 | 196015
15 | 43:33.41 | 2:59.29 | 196016 | 209469
16 | 46:32.70 | 3:03.58 | 209470 | 223252
17 | 49:36.53 | 3:24.06 | 223253 | 238558
18 | 53:00.59 | 2:46.34 | 238559 | 251042
19 | 55:47.18 | 1:09.56 | 251043 | 256273
20 | 56:56.74 | 3:41.08 | 256274 | 272856
21 | 60:38.07 | 5:06.74 | 272857 | 295880

Range status and errors

Selected range

Filename K:\Music\Борис Гмиря - Великому Кобзареві (2001)\Борис Гмиря - Великому Кобзареві.wav

Peak level 100.0 %
Extraction speed 4.7 X
Range quality 99.9 %
Copy CRC A5B201F9
Copy OK

No errors occurred

AccurateRip summary

Track 1 not present in database
Track 2 not present in database
Track 3 not present in database
Track 4 not present in database
Track 5 not present in database
Track 6 not present in database
Track 7 not present in database
Track 8 not present in database
Track 9 not present in database
Track 10 not present in database
Track 11 not present in database
Track 12 not present in database
Track 13 not present in database
Track 14 not present in database
Track 15 not present in database
Track 16 not present in database
Track 17 not present in database
Track 18 not present in database
Track 19 not present in database
Track 20 not present in database
Track 21 not present in database

None of the tracks are present in the AccurateRip database

End of status report
fooCDtect

fooCDtect - foobar2000 + auCDtect, baralgin.

auCDtect: CD records authenticity detector, version 0.8.2
Copyright (c) 2004 Oleg Berngardt. All rights reserved.
Copyright (c) 2004 Alexander Djourik. All rights reserved.

mode: 0

=======================================================
Track: 01 - Борис Гмиря - Учітеся, брати мої
Quality: CDDA, 100%
=======================================================
Track: 02 - Борис Гмиря - Чого мені тяжко
Quality: CDDA, 100%
=======================================================
Track: 03 - Борис Гмиря - За думою дума
Quality: CDDA, 100%
=======================================================
Track: 04 - Борис Гмиря - Сонце заходить
Quality: CDDA, 85%
=======================================================
Track: 05 - Борис Гмиря - Зацвіла в долині
Quality: CDDA, 100%
=======================================================
Track: 06 - Борис Гмиря - Така її доля
Quality: CDDA, 99%
=======================================================
Track: 07 - Борис Гмиря - Дума волоха
Quality: CDDA, 100%
=======================================================
Track: 08 - Борис Гмиря - Реве та стогне Дніпр широкий
Quality: CDDA, 100%
=======================================================
Track: 09 - Борис Гмиря - Думи мої
Quality: CDDA, 100%
=======================================================
Track: 10 - Борис Гмиря - Гей, літа орел (з поеми «Гайдамаки»)
Quality: CDDA, 100%
=======================================================
Track: 11 - Борис Гмиря - Зоре моя вечірняя
Quality: CDDA, 100%
=======================================================
Track: 12 - Борис Гмиря - Дивлюсь я на яснії зорі
Quality: CDDA, 99%
=======================================================
Track: 13 - Борис Гмиря - Безмежнеє поле
Quality: CDDA, 100%
=======================================================
Track: 14 - Борис Гмиря - Дивлюсь я на небо
Quality: CDDA, 100%
=======================================================
Track: 15 - Борис Гмиря - Сміються, плачуть солов’ї
Quality: CDDA, 100%
=======================================================
Track: 16 - Борис Гмиря - Ой не цвіти буйним цвітом
Quality: CDDA, 100%
=======================================================
Track: 17 - Борис Гмиря - Вечір на дворі
Quality: CDDA, 100%
=======================================================
Track: 18 - Борис Гмиря - Ой чого ти дубе (пісня Івана Сірка з драми «Про що тирса шелестіла»)
Quality: CDDA, 100%
=======================================================
Track: 19 - Борис Гмиря - Од села до села (з поеми «Гайдамаки»)
Quality: CDDA, 100%
=======================================================
Track: 20 - Борис Гмиря - Мені однаково
Quality: CDDA, 100%
=======================================================
Track: 21 - Борис Гмиря - Заповіт
Quality: MPEG, 90%
=======================================================
Додаткова інформація:
Він казав, що вперше пісні на твори Тараса Шевченка почув не просто в дитинстві, а ще в колисці – дійсно, із молоком матері увібрав. Борис Гмиря – перший, і до сьогодні єдиний, співак, який створив цілу концертну програму з музичних творів на вірші Шевченка. Ви зараз бачите перед собою перший компакт-диск в Україні з шевченківською програмою. Далі. Практично ніхто не заперечує геніальність Шевченка. Так само – і стосовно Гмирі. Поєднання цих двох – не сума, це – добуток. Квадрат і взагалі є фігурою доволі магічною. В даному ж випадку, гадаю, маємо справу з квадратурою кола – у першому наближенні. Кожна людина – цілий світ. Але кожен з цих двох – свідомий Всесвіт. Важко передати все, що виникає усередині під час прослуховування концерту. Окрім всього, це враження на рівні підсвідомості, цей відгук, мабуть, закодований в крові кожного українця. Незалежно від його особистих музично-поетичних уподобань. І тому все вищесказане є просто запрошенням: зазирніть у себе, відчуйте свої корені.


Умка
Арії з опер (2001)


Стиль: Opera
Видавець: JRC
Пісні:

  1. Арія Кривоноса «Ідіть від села до села» («Богдан Хмельницький»)
  2. Арія Кривоноса «Тяжко, друзі» («Богдан Хмельницький»)
  3. Арія Кривоноса, зустріч з Богуном («Богдан Хмельницький»)
  4. Арія Івана Сусаніна («Іван Сусанін»)
  5. Арія Бориса Годунова «Досяг я вищої влади» («Борис Годунов»)
  6. Арія царя Салтана («Казка про царя Салтана»)
  7. Арія Рущака («Милана»)
  8. Арія Тараса Бульби («Тарас Бульба»)
  9. Монолог Тараса Бульби («Тарас Бульба»)
  10. Пісня виборного «Ой під вишнею, під черешнею» («Наталка Полавка»)
  11. Арія Пімена («Борис Годунов»)
  12. Арія Філіпа («Дон Карлос»)
  13. Арія Прочиди («Сицілійська вечерня»)
  14. Арія Войтана («Закликання вогню» «Валькірія»)

Тривалість: 01:19:49
Мова: українська (1-10), російська (11-14)
Аудіо-кодек: FLAC
Бітрейт: 552 кб/с
Джерело: власний ріп
Тип ріпу: image+CUE+обкладинки
EAC Log

Exact Audio Copy V0.99 prebeta 5 from 4. May 2009

Звіт EAC про видобування, котре виконане 22. лютого 2011, 8:35

Борис Гмиря / Арії з опер

Дисковод: Optiarc DVD RW AD-7200A Adapter: 0 ID: 0

Режим читання : Точний
Використати точний потік : Так
Вимкнути аудіо кеш : Так
Застосувати мітки C2 : Ні

Корекція зміщення при читанні : 0
Екстрачитання областей Lead-in і Lead-out : Ні
Заповнення пропущених семплів тишею : Так
Видалення блоків з тишею на початку і кінці : Ні
При вирахуванні CRC використовувались нульові семпли : Ні
Використаний інтерфейс : 'Рідний' Win32-інтерфейс для Win NT/2000

Застосований вихідний формат : Внутрішні WAV-операції
Формат семпла : 44.100 Гц; 16 біт; стерео

TOC видобутого CD

Трек | Старт | Довжина | Початковий сектор | Кінцевий сектор
------------------------------------------------------------------
1 | 0:00.00 | 3:04.48 | 0 | 13847
2 | 3:04.48 | 4:09.06 | 13848 | 32528
3 | 7:13.54 | 4:42.17 | 32529 | 53695
4 | 11:55.71 | 5:39.13 | 53696 | 79133
5 | 17:35.09 | 5:21.59 | 79134 | 103267
6 | 22:56.68 | 4:15.73 | 103268 | 122465
7 | 27:12.66 | 4:42.74 | 122466 | 143689
8 | 31:55.65 | 3:13.18 | 143690 | 158182
9 | 35:09.08 | 5:50.18 | 158183 | 184450
10 | 40:59.26 | 2:01.61 | 184451 | 193586
11 | 43:01.12 | 5:34.51 | 193587 | 218687
12 | 48:35.63 | 7:47.05 | 218688 | 253717
13 | 56:22.68 | 8:48.26 | 253718 | 293343
14 | 65:11.19 | 14:37.55 | 293344 | 359173

Статус діапазону і помилки

Обраний діапазон

Ім'я файлу D:\Music\Борис Гмиря - Арії з опер.wav

Підозріла позиція 1:19:26

Піковий рівень 100.0 %
Якість діапазону 99.9 %
CRC копії 5D0B8108
Копіювання довершене

Були помилки

Кінець звіту
fooCDtect

fooCDtect - foobar2000 + auCDtect, baralgin.

auCDtect: CD records authenticity detector, version 0.8.2
Copyright (c) 2004 Oleg Berngardt. All rights reserved.
Copyright (c) 2004 Alexander Djourik. All rights reserved.

mode: 0

=======================================================
Track: 01 - Арія Кривоноса «Ідіть від села до села» («Богдан Хмельницький»)
Quality: CDDA, 100%
=======================================================
Track: 02 - Арія Кривоноса «Тяжко, друзі» («Богдан Хмельницький»)
Quality: CDDA, 100%
=======================================================
Track: 03 - Арія Кривоноса, зустріч з Богуном («Богдан Хмельницький»)
Quality: CDDA, 99%
=======================================================
Track: 04 - Арія Івана Сусаніна («Іван Сусанін»)
Quality: CDDA, 58%
=======================================================
Track: 05 - Арія Бориса Годунова «Досяг я вищої влади» («Борис Годунов»)
Quality: CDDA, 100%
=======================================================
Track: 06 - Арія царя Салтана («Казка про царя Салтана»)
Quality: CDDA, 100%
=======================================================
Track: 07 - Арія Рущака («Милана»)
Quality: CDDA, 100%
=======================================================
Track: 08 - Арія Тараса Бульби («Тарас Бульба»)
Quality: MPEG, 100%
=======================================================
Track: 09 - Монолог Тараса Бульби («Тарас Бульба»)
Quality: CDDA, 100%
=======================================================
Track: 10 - Пісня виборного «Ой під вишнею, під черешнею» («Наталка Полавка»)
Quality: CDDA, 99%
=======================================================
Track: 11 - Арія Пімена («Борис Годунов»)
Quality: CDDA, 100%
=======================================================
Track: 12 - Арія Філіпа («Дон Карлос»)
Quality: CDDA, 99%
=======================================================
Track: 13 - Арія Прочиди («Сицілійська вечерня»)
Quality: CDDA, 99%
=======================================================
Track: 14 - Арія Войтана («Закликання вогню» «Валькірія»)
Quality: CDDA, 99%
=======================================================
Додаткова інформація:
Одного дня він мав стати народним артистом УРСР. Замість того у цей день він став народним артистом Радянського Союзу. Не випадково, ясна річ. Наприклад, у його спадку – 44 оперних партії. І кожного разу це повне перевтілення, проникнення, навіть переосмислення не тільки в гримі-одязі, але в інтонації звучання. Артист-філософ, він часом мав погляд щодо вірного трактування образу, який відрізнявся від звичного, усталеного. І виконавську глибину, яка давала змогу цей погляд яскраво демонструвати та доводити його правильність. Зрозуміло, що такий стан речей викликав до нього заздрощі, притягував наклепи. Тому у рідному Київському оперному театрі було йому не дуже солодко. Попри це, його визнав увесь світ. З приводу ж пророків у своїй вітчизні нам всім відомо цілком достатньо. Тим не менш, Борис Гмиря назавжди залишився суто українським артистом, жодного разу не прийнявши пропозицій постійної роботи в театрах за межами України. І знаєте, ім’ям такого співвітчизника варто пишатися.


Умка
Феноменальне мистецтво Бориса Гмирі (2003)


Стиль: Folk / Opera
Видавець: Lemma
Пісні:
    01. Тихо, тихо Дунай воду несе
    02. Їхав козак на війноньку
    03. Ой дівчино-горлиця
    04. Зібралися всі бурлаки
    05. Грицю, Грицю до роботи
    06. В місяці іюлі
    07. Ой Дніпро, Дніпро (дует з Петром Білинником)
    08. Я бачив, як вітер берізку зломив
    09. Елегія
    10. Старовинна пісня
    11. Ні відгуку, ні слова
    12. Я чекав на тебе
    13. Пісня Карася «Ой щось дуже загулявся»
    14. Арія Карася «Тепер я турок, не козак»
    15. Монолог Тараса Бульби
    16. Арія Остапа
    17. Думи Волоха з поеми Т.Шевченка «Гайдамаки»
    18. Арія Валька
    19. Арія Кочубея
    20. Речетатив Галицького
    21. Арія Олоферна
    22. Арія Гульємо
    23. Куплети Мефістофеля

Тривалість: 01:13:44
Мова: українська (1-9, 13-18), російська (10-12, 19-23)
Аудіо-кодек: FLAC
Бітрейт: 443 кб/с
Джерело: власний ріп
Тип ріпу: image+CUE+обкладинки
EAC log

Exact Audio Copy V1.0 beta 1 from 15. November 2010

EAC extraction logfile from 21. March 2011, 8:59

Борис Гмиря / Феноменальне мистецтво Бориса Гмирі

Used drive : Optiarc DVD RW AD-7200A Adapter: 0 ID: 0

Read mode : Secure
Utilize accurate stream : Yes
Defeat audio cache : Yes
Make use of C2 pointers : No

Read offset correction : 0
Overread into Lead-In and Lead-Out : No
Fill up missing offset samples with silence : Yes
Delete leading and trailing silent blocks : No
Null samples used in CRC calculations : No
Used interface : Native Win32 interface for Win NT & 2000

Used output format : Internal WAV Routines
Sample format : 44.100 Hz; 16 Bit; Stereo

TOC of the extracted CD

Track | Start | Length | Start sector | End sector
---------------------------------------------------------
1 | 0:00.00 | 5:09.09 | 0 | 23183
2 | 5:09.09 | 3:25.27 | 23184 | 38585
3 | 8:34.36 | 1:17.51 | 38586 | 44411
4 | 9:52.12 | 3:04.18 | 44412 | 58229
5 | 12:56.30 | 2:11.60 | 58230 | 68114
6 | 15:08.15 | 2:35.62 | 68115 | 79801
7 | 17:44.02 | 3:54.45 | 79802 | 97396
8 | 21:38.47 | 3:38.24 | 97397 | 113770
9 | 25:16.71 | 3:48.13 | 113771 | 130883
10 | 29:05.09 | 3:13.28 | 130884 | 145386
11 | 32:18.37 | 2:48.47 | 145387 | 158033
12 | 35:07.09 | 2:22.26 | 158034 | 168709
13 | 37:29.35 | 2:23.64 | 168710 | 179498
14 | 39:53.24 | 2:48.12 | 179499 | 192110
15 | 42:41.36 | 5:54.37 | 192111 | 218697
16 | 48:35.73 | 3:34.26 | 218698 | 234773
17 | 52:10.24 | 2:33.57 | 234774 | 246305
18 | 54:44.06 | 3:34.43 | 246306 | 262398
19 | 58:18.49 | 3:07.47 | 262399 | 276470
20 | 61:26.21 | 3:58.27 | 276471 | 294347
21 | 65:24.48 | 3:05.69 | 294348 | 308291
22 | 68:30.42 | 3:14.06 | 308292 | 322847
23 | 71:44.48 | 1:59.58 | 322848 | 331830

Range status and errors

Selected range

Filename D:\Music\Борис Гмиря - Феноменальне мистецтво Бориса Гмирі (2003)\Борис Гмиря - Феноменальне мистецтво Бориса Гмирі.wav

Peak level 100.0 %
Extraction speed 0.1 X
Range quality 99.9 %
Copy CRC 4B930E4C
Copy OK

No errors occurred

End of status report
fooCDtect

fooCDtect - foobar2000 + auCDtect, baralgin.

auCDtect: CD records authenticity detector, version 0.8.2
Copyright (c) 2004 Oleg Berngardt. All rights reserved.
Copyright (c) 2004 Alexander Djourik. All rights reserved.

mode: 0

=======================================================
Track: 01 - Тихо, тихо Дунай воду несе
Quality: MPEG, 93%
=======================================================
Track: 02 - Їхав козак на війноньку
Quality: CDDA, 43%
=======================================================
Track: 03 - Ой дівчино-горлиця
Quality: MPEG, 80%
=======================================================
Track: 04 - Зібралися всі бурлаки
Quality: MPEG, 100%
=======================================================
Track: 05 - Грицю, Грицю до роботи
Quality: MPEG, 100%
=======================================================
Track: 06 - В місяці іюлі
Quality: MPEG, 100%
=======================================================
Track: 07 - Ой Дніпро, Дніпро
Quality: MPEG, 100%
=======================================================
Track: 08 - Я бачив, як вітер берізку зломив
Quality: CDDA, 100%
=======================================================
Track: 09 - Елегія
Quality: CDDA, 49%
=======================================================
Track: 10 - Старовинна пісня
Quality: MPEG, 89%
=======================================================
Track: 11 - Ні відгуку, ні слова
Quality: MPEG, 93%
=======================================================
Track: 12 - Я чекав на тебе
Quality: MPEG, 89%
=======================================================
Track: 13 - Пісня Карася «Ой щось дуже загулявся»
Quality: MPEG, 90%
=======================================================
Track: 14 - Арія Карася «Тепер я турок, не козак»
Quality: MPEG, 100%
=======================================================
Track: 15 - Монолог Тараса Бульби
Quality: MPEG, 97%
=======================================================
Track: 16 - Арія Остапа
Quality: MPEG, 89%
=======================================================
Track: 17 - Думи Волоха з поеми Т.Шевченка «Гайдамаки»
Quality: MPEG, 80%
=======================================================
Track: 18 - Арія Валька
Quality: MPEG, 100%
=======================================================
Track: 19 - Арія Кочубея
Quality: MPEG, 100%
=======================================================
Track: 20 - Речетатив Галицького
Quality: MPEG, 100%
=======================================================
Track: 21 - Арія Олоферна
Quality: CDDA, 54%
=======================================================
Track: 22 - Арія Гульємо
Quality: CDDA, 99%
=======================================================
Track: 23 - Куплети Мефістофеля
Quality: CDDA, 86%
=======================================================
Додаткова інформація:
Перед Вами – один з шести представлених у нас дисків із записами співу Бориса Гмирі. Ще за життя, у 1962р., його ім’я внесено до Міжнародної енциклопедії "Who is who?", у 1992р. – включено до списку ста найславетніших українців за останню тисячу років історії України. Голосно, але це лише папір. Мені ж важко навіть уявити, у скількох серцях його ім’я вписане літерами душі. І не було важливим, чи знали українську ті, хто слухав його концерти. Бо голос його проникає всередину, огортає, ніжить, хвилює, очищує. Я впевнений, що ті, хто слухають спів цієї людини, пізнають значення слова "катарсис" на своєму досвіді. Цей диск є певною ілюстрацією різноманітності його творчості, здатності виносити високе мистецтво за політично-географічні межі. Тут і народні пісні, і російські романси, і арії з опер. Навіть переклади світової класики – наприклад, "Елегія" Ж.Масне у, власне, перекладі самого Бориса Гмирі. І все це без виключення – живе, магічне, палаюче. Він просто-запросто чарує, заворожує. Закінчити, мабуть, можна одним словом – Митець...


Умка
Українські народні пісні у супроводі оркестру народних інструментів (2005)


Стиль: Folk / Opera
Видавець: Фонд Бориса Гмирі
Пісні:
    01. Вже третій вечір
    02. Борис Гмиря про українську пісню
    03. Дівчино кохана, здорова була
    04. Ой не шуми, луже
    05. Гандзя
    06. Пісня Виборного (з опери «Наталка Полтавка»)
    07. Ой ти, дівчино зарученая
    08. Чорнії брови, карії очі
    09. Ой кум до куми залицявся
    10. Ой у полі озеречко
    11. Якби мені не тиночки
    12. Ой ти, місяцю-зоре
    13. Ой ходила дівчина бережечком
    14. Ой що ж бо то та й за ворон
    15. Та куди їдеш, Явтуше?
    16. Та немає в світі гірш нікому (з опери «Наталка Полтавка»)
    17. Гей, гук, мати, гук
    18. Одна гора високая
    19. Ой ішов я вулицею раз, раз
    20. Ой лопнув обруч
    21. По дорозі жук, жук
    22. Ой дівчино горлиця
    23. Удовицю я любив
    24. Ой із-за гори та буйний вітер віє

Тривалість: 01:13:29
Мова: українська
Аудіо-кодек: FLAC
Бітрейт: 598 кб/с
Джерело: власний ріп
Тип ріпу: image+CUE+обкладинки
EAC log

Exact Audio Copy V1.0 beta 2 from 29. April 2011

EAC extraction logfile from 6. August 2011, 20:46

Борис Гмиря / Українські народні пісні у супроводі оркестру народних інструментів

Used drive : Optiarc DVD RW AD-7530B Adapter: 0 ID: 0

Read mode : Secure
Utilize accurate stream : Yes
Defeat audio cache : Yes
Make use of C2 pointers : No

Read offset correction : 6
Overread into Lead-In and Lead-Out : No
Fill up missing offset samples with silence : Yes
Delete leading and trailing silent blocks : No
Null samples used in CRC calculations : Yes
Used interface : Native Win32 interface for Win NT & 2000

Used output format : Internal WAV Routines
Sample format : 44.100 Hz; 16 Bit; Stereo

TOC of the extracted CD

Track | Start | Length | Start sector | End sector
---------------------------------------------------------
1 | 0:00.00 | 1:58.32 | 0 | 8881
2 | 1:58.32 | 4:38.14 | 8882 | 29745
3 | 6:36.46 | 2:09.06 | 29746 | 39426
4 | 8:45.52 | 3:48.39 | 39427 | 56565
5 | 12:34.16 | 3:34.72 | 56566 | 72687
6 | 16:09.13 | 1:57.73 | 72688 | 81535
7 | 18:07.11 | 4:40.31 | 81536 | 102566
8 | 22:47.42 | 4:17.24 | 102567 | 121865
9 | 27:04.66 | 2:30.08 | 121866 | 133123
10 | 29:34.74 | 4:07.11 | 133124 | 151659
11 | 33:42.10 | 1:56.34 | 151660 | 160393
12 | 35:38.44 | 3:18.30 | 160394 | 175273
13 | 38:56.74 | 1:32.27 | 175274 | 182200
14 | 40:29.26 | 4:38.22 | 182201 | 203072
15 | 45:07.48 | 3:38.38 | 203073 | 219460
16 | 48:46.11 | 3:50.02 | 219461 | 236712
17 | 52:36.13 | 5:42.31 | 236713 | 262393
18 | 58:18.44 | 1:56.36 | 262394 | 271129
19 | 60:15.05 | 2:24.22 | 271130 | 281951
20 | 62:39.27 | 1:53.28 | 281952 | 290454
21 | 64:32.55 | 1:21.48 | 290455 | 296577
22 | 65:54.28 | 1:13.66 | 296578 | 302118
23 | 67:08.19 | 1:45.43 | 302119 | 310036
24 | 68:53.62 | 4:35.43 | 310037 | 330704

Range status and errors

Selected range

Filename C:\Music\Борис Гмиря - Українські народні пісні (2005)\Борис Гмиря - Українські народні пісні.wav

Peak level 100.0 %
Extraction speed 5.0 X
Range quality 99.9 %
Copy CRC 6C6D3805
Copy OK

No errors occurred

AccurateRip summary

Track 1 not present in database
Track 2 not present in database
Track 3 not present in database
Track 4 not present in database
Track 5 not present in database
Track 6 not present in database
Track 7 not present in database
Track 8 not present in database
Track 9 not present in database
Track 10 not present in database
Track 11 not present in database
Track 12 not present in database
Track 13 not present in database
Track 14 not present in database
Track 15 not present in database
Track 16 not present in database
Track 17 not present in database
Track 18 not present in database
Track 19 not present in database
Track 20 not present in database
Track 21 not present in database
Track 22 not present in database
Track 23 not present in database
Track 24 not present in database

None of the tracks are present in the AccurateRip database

End of status report
fooCDtect

fooCDtect - foobar2000 + auCDtect, baralgin.

auCDtect: CD records authenticity detector, version 0.8.2
Copyright (c) 2004 Oleg Berngardt. All rights reserved.
Copyright (c) 2004 Alexander Djourik. All rights reserved.

mode: 0

=======================================================
Track: 01 - Борис Гмиря - Вже третій вечір
Quality: CDDA, 100%
=======================================================
Track: 02 - Борис Гмиря - Борис Гмиря про українську пісню
Quality: MPEG, 91%
=======================================================
Track: 03 - Борис Гмиря - Дівчино кохана, здорова була
Quality: CDDA, 99%
=======================================================
Track: 04 - Борис Гмиря - Ой не шуми, луже
Quality: CDDA, 100%
=======================================================
Track: 05 - Борис Гмиря - Гандзя
Quality: CDDA, 100%
=======================================================
Track: 06 - Борис Гмиря - Пісня Виборного (з опери «Наталка Полтавка»)
Quality: CDDA, 99%
=======================================================
Track: 07 - Борис Гмиря - Ой ти, дівчино зарученая
Quality: CDDA, 85%
=======================================================
Track: 08 - Борис Гмиря - Чорнії брови, карії очі
Quality: CDDA, 100%
=======================================================
Track: 09 - Борис Гмиря - Ой кум до куми залицявся
Quality: CDDA, 100%
=======================================================
Track: 10 - Борис Гмиря - Ой у полі озеречко
Quality: CDDA, 100%
=======================================================
Track: 11 - Борис Гмиря - Якби мені не тиночки
Quality: CDDA, 100%
=======================================================
Track: 12 - Борис Гмиря - Ой ти, місяцю-зоре
Quality: CDDA, 100%
=======================================================
Track: 13 - Борис Гмиря - Ой ходила дівчина бережечком
Quality: CDDA, 100%
=======================================================
Track: 14 - Борис Гмиря - Ой що ж бо то та й за ворон
Quality: CDDA, 100%
=======================================================
Track: 15 - Борис Гмиря - Та куди їдеш, Явтуше
Quality: CDDA, 100%
=======================================================
Track: 16 - Борис Гмиря - Та немає в світі гірш нікому (з опери «Наталка Полтавка»)
Quality: CDDA, 100%
=======================================================
Track: 17 - Борис Гмиря - Гей, гук, мати, гук
Quality: CDDA, 100%
=======================================================
Track: 18 - Борис Гмиря - Одна гора високая
Quality: CDDA, 100%
=======================================================
Track: 19 - Борис Гмиря - Ой ішов я вулицею раз, раз
Quality: CDDA, 100%
=======================================================
Track: 20 - Борис Гмиря - Ой лопнув обруч
Quality: CDDA, 100%
=======================================================
Track: 21 - Борис Гмиря - По дорозі жук, жук
Quality: CDDA, 100%
=======================================================
Track: 22 - Борис Гмиря - Ой дівчино горлиця
Quality: CDDA, 100%
=======================================================
Track: 23 - Борис Гмиря - Удовицю я любив
Quality: CDDA, 100%
=======================================================
Track: 24 - Борис Гмиря - Ой із-за гори та буйний вітер віє
Quality: CDDA, 100%
=======================================================
Додаткова інформація:
Дивний, рідкісний голос. І не тільки тому, що цей бас-кантанте, носіїв якого не так вже й багато, визнають ідеальним. Сила його у легкості. Немає тут напруження, викликаного обмеженістю. Адже цей бас міг ставати і баритоном, і навіть тенором. Але головне – інтонація, чистота і точність передачі почуттів, емоцій. Якась океанська, навіть космічна глибина. Та Ви послухайте просто, як ця людина розмовляє – просто, лагідно. Красиво. Його мова вже сама по собі співає. Чуєш цей голос – і одразу відчуваєш душу, яка тремтить, страждає, радіє повною мірою. Душу, яка здатна охопити і прийняти всесвіт, яка звучить з ним в унісон. Це голос людини світлої і мудрої. Я певен, що не помиляюсь в цьому відчутті.


Умка
Борис Гмиря і хорова капела України «Думка» - Українські народні пісні (2005)


Стиль: Folk / Opera
Видавець: Rostok Records
Пісні:
    01. Стоїть гора високая
    02. Ой зійди, зійди, ясен місяцю
    03. Ґандзя
    04. Стоїть явір над водою
    05. Ой що ж бо то та й за ворон
    06. Дивлюсь я на небо
    07. Ой не шуми луже…
    08. Глухой неведомой тайгой
    09. Пісня про Дніпро
    10. Степь да степь кругом
    11. Уж как пал туман
    12. Серенада
    13. Елегія
    14. Взяв би я бандуру
    15. Чуєш, брате мій
    16. Куди їдеш, Явтуше?
    17. Повій, вітре, на Вкраїну
    18. Думи мої, думи мої

Тривалість: 01:19:37
Мова: українська (1-7, 9, 13-18), російська (8, 10-12)
Аудіо-кодек: FLAC
Бітрейт: 479 кб/с
Джерело: власний ріп
Тип ріпу: image+CUE+обкладинки
EAC log

Exact Audio Copy V1.0 beta 2 from 29. April 2011

EAC extraction logfile from 27. August 2011, 7:58

Борис Гмиря і хорова капела України «Думка» / Українські народні пісні

Used drive : Optiarc DVD RW AD-7530B Adapter: 0 ID: 0

Read mode : Secure
Utilize accurate stream : Yes
Defeat audio cache : Yes
Make use of C2 pointers : No

Read offset correction : 6
Overread into Lead-In and Lead-Out : No
Fill up missing offset samples with silence : Yes
Delete leading and trailing silent blocks : No
Null samples used in CRC calculations : Yes
Used interface : Native Win32 interface for Win NT & 2000

Used output format : Internal WAV Routines
Sample format : 44.100 Hz; 16 Bit; Stereo

TOC of the extracted CD

Track | Start | Length | Start sector | End sector
---------------------------------------------------------
1 | 0:00.00 | 6:37.34 | 0 | 29808
2 | 6:37.34 | 5:22.04 | 29809 | 53962
3 | 11:59.38 | 2:35.11 | 53963 | 65598
4 | 14:34.49 | 4:46.58 | 65599 | 87106
5 | 19:21.32 | 4:52.38 | 87107 | 109044
6 | 24:13.70 | 3:54.47 | 109045 | 126641
7 | 28:08.42 | 4:45.47 | 126642 | 148063
8 | 32:54.14 | 4:32.39 | 148064 | 168502
9 | 37:26.53 | 4:26.73 | 168503 | 188525
10 | 41:53.51 | 4:21.17 | 188526 | 208117
11 | 46:14.68 | 4:50.58 | 208118 | 229925
12 | 51:05.51 | 4:50.25 | 229926 | 251700
13 | 55:56.01 | 3:50.13 | 251701 | 268963
14 | 59:46.14 | 4:11.24 | 268964 | 287812
15 | 63:57.38 | 3:30.31 | 287813 | 303593
16 | 67:27.69 | 3:18.66 | 303594 | 318509
17 | 70:46.60 | 4:49.14 | 318510 | 340198
18 | 75:35.74 | 4:00.66 | 340199 | 358264

Range status and errors

Selected range

Filename C:\Music\Борис Гмиря і хорова капела України «Думка» - Українські народні пісні (2005)\Борис Гмиря - Українські народні пісні.wav

Peak level 100.0 %
Extraction speed 4.0 X
Range quality 99.9 %
Copy CRC 4C39AEE8
Copy OK

No errors occurred

AccurateRip summary

Track 1 not present in database
Track 2 not present in database
Track 3 not present in database
Track 4 not present in database
Track 5 not present in database
Track 6 not present in database
Track 7 not present in database
Track 8 not present in database
Track 9 not present in database
Track 10 not present in database
Track 11 not present in database
Track 12 not present in database
Track 13 not present in database
Track 14 not present in database
Track 15 not present in database
Track 16 not present in database
Track 17 not present in database
Track 18 not present in database

None of the tracks are present in the AccurateRip database

End of status report
fooCDtect

fooCDtect - foobar2000 + auCDtect, baralgin.

auCDtect: CD records authenticity detector, version 0.8.2
Copyright (c) 2004 Oleg Berngardt. All rights reserved.
Copyright (c) 2004 Alexander Djourik. All rights reserved.

mode: 0

=======================================================
Track: 01 - Борис Гмиря і хорова капела України «Думка» - Стоїть гора високая
Quality: MPEG, 90%
=======================================================
Track: 02 - Борис Гмиря і хорова капела України «Думка» - Ой зійди, зійди, ясен місяцю
Quality: CDDA, 100%
=======================================================
Track: 03 - Борис Гмиря і хорова капела України «Думка» - Ґандзя
Quality: CDDA, 100%
=======================================================
Track: 04 - Борис Гмиря і хорова капела України «Думка» - Стоїть явір над водою
Quality: MPEG, 100%
=======================================================
Track: 05 - Борис Гмиря і хорова капела України «Думка» - Ой що ж бо то та й за ворон
Quality: CDDA, 100%
=======================================================
Track: 06 - Борис Гмиря і хорова капела України «Думка» - Дивлюсь я на небо
Quality: MPEG, 93%
=======================================================
Track: 07 - Борис Гмиря і хорова капела України «Думка» - Ой не шуми луже…
Quality: CDDA, 49%
=======================================================
Track: 08 - Борис Гмиря і хорова капела України «Думка» - Глухой неведомой тайгой
Quality: CDDA, 100%
=======================================================
Track: 09 - Борис Гмиря і хорова капела України «Думка» - Пісня про Дніпро
Quality: CDDA, 100%
=======================================================
Track: 10 - Борис Гмиря і хорова капела України «Думка» - Степь да степь кругом
Quality: CDDA, 100%
=======================================================
Track: 11 - Борис Гмиря і хорова капела України «Думка» - Уж как пал туман
Quality: CDDA, 100%
=======================================================
Track: 12 - Борис Гмиря і хорова капела України «Думка» - Серенада
Quality: CDDA, 100%
=======================================================
Track: 13 - Борис Гмиря і хорова капела України «Думка» - Елегія
Quality: CDDA, 49%
=======================================================
Track: 14 - Борис Гмиря і хорова капела України «Думка» - Взяв би я бандуру
Quality: CDDA, 99%
=======================================================
Track: 15 - Борис Гмиря і хорова капела України «Думка» - Чуєш, брате мій
Quality: CDDA, 100%
=======================================================
Track: 16 - Борис Гмиря і хорова капела України «Думка» - Куди їдеш, Явтуше
Quality: CDDA, 100%
=======================================================
Track: 17 - Борис Гмиря і хорова капела України «Думка» - Повій, вітре, на Вкраїну
Quality: CDDA, 42%
=======================================================
Track: 18 - Борис Гмиря і хорова капела України «Думка» - Думи мої, думи мої
Quality: MPEG, 95%
=======================================================
Додаткова інформація:
Співпраця Бориса Гмирі та хорової капели "Думка" під орудою Павла Муравського тривала недовго – близько трьох років. Але це зараз Павло Муравський досяг уже настільки поважного віку, що неможливо вимагати від нього зразково-перфектних результатів роботи. А на той час – наприкінці 60-х років – капела "Думка" була чи не кращим хоровим колективом на території всього СРСР, і Муравський був у розквіті сил. Борис Гмиря на той момент теж уже, як то кажуть, відбувся на всі сто. Його голос знали не лише вдома, а й у всьому світі – втім, це аж ніяк не вплинуло на звичку працювати з матеріалом уважно, навіть прискіпливо, і домагатися чи не ідеальних результатів. Власне, Ви й самі маєте можливість оцінити перфекціонізм Гмирі та Муравського – зміст цього диску складають саме концертні записи згаданого періоду, а також кілька студійних записів. Ясна річ, якість тогочасних концертних записів не може зрівнятися з нинішніми – на жаль. Але навіть і при цьому майстерність і капели, і Бориса Гмирі – не може не вражати...


Умка
Тривалість: 06:12:25
Мова: українська, російська
Аудіо-кодек: FLAC
Бітрейт: 428-598 кб/с
Джерело: власний ріп
Тип ріпу: image+CUE+обкладинки

Додаткова інформація:
Одного дня він мав стати народним артистом УРСР. Замість того у цей день він став народним артистом Радянського Союзу. Не випадково, ясна річ. Наприклад, у його спадку – 44 оперних партії. І кожного разу це повне перевтілення, проникнення, навіть переосмислення не тільки в гримі-одязі, але в інтонації звучання. Артист-філософ, він часом мав погляд щодо вірного трактування образу, який відрізнявся від звичного, усталеного. І виконавську глибину, яка давала змогу цей погляд яскраво демонструвати та доводити його правильність. Зрозуміло, що такий стан речей викликав до нього заздрощі, притягував наклепи. Тому у рідному Київському оперному театрі було йому не дуже солодко. Попри це, його визнав увесь світ. З приводу ж пророків у своїй вітчизні нам всім відомо цілком достатньо. Тим не менш, Борис Гмиря назавжди залишився суто українським артистом, жодного разу не прийнявши пропозицій постійної роботи в театрах за межами України. І знаєте, ім’ям такого співвітчизника варто пишатися.


Умка




Якщо Ви справді бажаєте підтримати українське - після прослуховування, якщо музика вам сподобалась, придбайте ліцензійний диск. Підтримаймо вітчизняних виконавців!


Срібний реліз (на рейтинг впливає 50% завантаженого)
 Трекер:    Зареєстрований   

Завантажити / скачати українську музику



відео для новачків



 Зареєстрований:   2011-10-10 09:10
 Розмір:   1.35 GB 
 Оцінка музики:   10/10 (Голосів: 15)
   
civ 
VIP


З нами з: 16.02.11
Востаннє: 09.12.16
Повідомлень: 429

2011-03-22 19:28  
Додав ще один альбом. "Арії з опер" не змінилися.
civ 
VIP


З нами з: 16.02.11
Востаннє: 09.12.16
Повідомлень: 429

2011-08-07 07:46  
Додав новий диск.
ssTAss 
Модератор музики


З нами з: 05.07.08
Востаннє: 10.12.16
Повідомлень: 10950

2011-08-07 13:26  
civ'е, додайте до колекції і "мій" реліз http://toloka.to/t15063, якщо бажаєте
civ 
VIP


З нами з: 16.02.11
Востаннє: 09.12.16
Повідомлень: 429

2011-08-08 22:05  
У мене є цей альбом у власному ріпі. І я не хочу качати й тримати іншу версію - й так місця на диску бракує...
Най поки що буде все як є.

ssTAss 
Модератор музики


З нами з: 05.07.08
Востаннє: 10.12.16
Повідомлень: 10950

2011-08-08 23:32  
civ написано:
У мене є цей альбом у власному ріпі.

ну то додавайте власний ріп
"свій" реліз перенесу в архів

civ 
VIP


З нами з: 16.02.11
Востаннє: 09.12.16
Повідомлень: 429

2011-08-12 22:02  
Додав свій ріп «Великому Кобзареві».
civ 
VIP


З нами з: 16.02.11
Востаннє: 09.12.16
Повідомлень: 429

2011-10-10 09:13  
Додав альбом «Українські народні пісні» разом з хоровою капелою «Думка».
Правда, трохи дивними виглядають серед українських народний 4 російські романси... Wide grin

Ваш часовий пояс: GMT + 2 Години

Нова тема   Відповісти