Завантажити та скачати торренти українською


Свара (1978)

Нові коментарі

Нова тема   Відповісти
Автор Повідомлення
Тирік 
VIP


З нами з: 06.04.09
Востаннє: 17.09.13
Повідомлень: 909

2011-02-22 15:27  
Свара (1978)


Жанр: анімація
Країна: УРСР
Кіностудія / кінокомпанія: Укранімафільм
Режисер: В. Костилєва
Над мультом працювали: Ж. Вінтенозі, Н. Сапожніков, О. Кива та інші.


Сюжет:
Нова пригода про дрізів Топа та Тутті, які ніколи не розлучались.

Тривалість: 00:09:14
Якість:
Відео:
кодек:
розмір кадру: 720 x 552
бітрейт: 1 960 Kб/с
Аудіо:
мова: українська
переклад: оригінал
кодек: АС-3 2.0
бітрейт: 224 Кбіт/сек

MediaINFO

Format : AVI
Format/Info : Audio Video Interleave
File size : 141 MiB
Duration : 9mn 1s
Overall bit rate : 2 194 Kbps
Writing application : VirtualDubMod 1.5.10.2 (build 2540/release)
Writing library : VirtualDubMod build 2540/release
Video #0
ID : 0
Format : MPEG-4 Visual
Format profile : [email protected]
Format settings, BVOP : Yes
Format settings, QPel : Yes
Format settings, GMC : 3 warppoints
Format settings, Matrix : Default (H.263)
Codec ID :
Codec ID/Hint :
Duration : 9mn 1s
Bit rate : 1 960 Kbps
Width : 720 pixels
Height : 552 pixels
Display aspect ratio : 4:3
Frame rate : 25.000 fps
Resolution : 24 bits
Colorimetry : 4:2:0
Scan type : Progressive
Bits/(Pixel*Frame) : 0.197
Stream size : 126 MiB (89%)
Writing library : 1.2.1 (UTC 2008-12-04)
Audio #1
ID : 1
Format : AC-3
Format/Info : Audio Coding 3
Codec ID : 2000
Duration : 9mn 0s
Bit rate mode : Constant
Bit rate : 224 Kbps
Channel(s) : 2 channels
Channel positions : L R
Sampling rate : 48.0 KHz
Stream size : 14.4 MiB (10%)
Alignment : Aligned on interleaves
Interleave, duration : 40 ms (1.00 video frame)
Interleave, preload duration : 512 ms
ScreenSHOT








Джерело: &

Якщо Ви справді бажаєте підтримати українське - після перегляду, якщо мультфільм вам сподобався, придбайте ліцензійний диск.
Підтримаймо вітчизняних аніматорів і видавців!
Замовити диск можна ТУТ!


Золотий реліз (завантажене не впливає на рейтинг)
 Трекер:    Зареєстрований   

Завантажити / скачати український мультфільм



відео для новачків



 Зареєстрований:   2011-02-22 15:27
 Розмір:   141 MB 
 Оцінка мультфільму:   10/10 (Голосів: 38)
   
imonko 
Відео Гуртом - фільмокрай
Відео Гуртом - фільмокрай


З нами з: 20.07.08
Востаннє: 31.10.16
Повідомлень: 7309

2011-02-22 15:49  
Тирік написано:
536

варто було кратність зберігати

AlanAlan 
Почесний гуртомівець


З нами з: 29.06.08
Востаннє: 06.02.16
Повідомлень: 1377

2011-02-22 19:14  
Тирік написано:
розмір кадру: 720 x 536

а скріни розміром 720 х 556. Поправ, будь ласка.

Тирік 
VIP


З нами з: 06.04.09
Востаннє: 17.09.13
Повідомлень: 909

2011-02-22 19:54  
AlanAlan написано:
а скріни розміром 720 х 556. Поправ, будь ласка.

хлопці, добре що я хоч встиг викласти торрент і народ завантажив, зараз поправлю, робота все ж таки...

Додано через 5 хвилин 34 секунди:

Тирік написано:
Height : 552 pixels

AlanAlan написано:
а скріни розміром 720 х 556.

552!, звідкіля 556? Виправив на 552.

AlanAlan 
Почесний гуртомівець


З нами з: 29.06.08
Востаннє: 06.02.16
Повідомлень: 1377

2011-02-22 19:59  
Тирік написано:
552!, звідкіля 556? Виправив на 552.

точно, 552, вибачай - теж з роботи)

Тирік 
VIP


З нами з: 06.04.09
Востаннє: 17.09.13
Повідомлень: 909

2011-02-22 20:02  
AlanAlan написано:
точно, 552, вибачай - теж з роботи)

та все гаразд, згодом добавлю скіншотів...

imonko 
Відео Гуртом - фільмокрай
Відео Гуртом - фільмокрай


З нами з: 20.07.08
Востаннє: 31.10.16
Повідомлень: 7309

2011-02-22 21:03  
552 теж не кратне 16, наступного разу роби розширення кратне
telestratic 
Новенький


З нами з: 28.02.12
Востаннє: 12.05.13
Повідомлень: 1

2012-09-30 20:16  
"Свара" - ніколи б не здогадався до такого перекладу. шукав цю серію давно, але на цей пост натрапив зовсім випадково
Tarasyk 
Відео Гуртом - фільмокрай
Відео Гуртом - фільмокрай


З нами з: 26.08.09
Востаннє: 10.12.16
Повідомлень: 5974

2014-01-19 21:39  
Ваш часовий пояс: GMT + 2 Години

Нова тема   Відповісти