Завантажити та скачати торренти українською


Капітошка. Повертайся, Капітошко (1980/1989)

Нові коментарі

Нова тема   Відповісти
Автор Повідомлення
Тирік 
VIP


З нами з: 06.04.09
Востаннє: 17.09.13
Повідомлень: 909

2011-02-22 14:26  
Капітошка. Повертайся, Капітошко (1980/1989)


Жанр: дитячий, анімація
Країна: УРСР
Кіностудія / кінокомпанія: КиївНаукФільм
Режисер: Борис Граневич
Над мультом трудились: Н. Гудзеєва, Б. Храневич, Г. Уманський, Г. Сасько, Л. Гаврилов, І. Чефранова, М. Тітов, А. Вікси, А. Педан, Б. Бенюк, І. Будз, О. Враторьов та інші.


Сюжет:
"Капітошка"
Музична казка про пригоди дощового створіння Капітошки, яке зуміло перевиховати злого вовченя.
"Повертайся Капітошко"
Продовження пригод Капітошки та Вовченяти. Цього разу їхня дружба опинилася під загрозою через злу тітку Вовченяти, якій не сподобалось що її племінник росте добрим і веселим, а не злим і похмурим, як "справжній вовк"

Тривалість: 00:08:35/00:09:53
Якість:
Відео:
кодек:
розмір кадру: 720 x 552
бітрейт: 1 976 / 1975 Kб/с
Аудіо:
мова: українська
переклад: оригінал
кодек: АС-3 2.0
бітрейт: 224 Кбіт/сек

MediaINFO

Format : AVI
Format/Info : Audio Video Interleave
File size : 135 MiB
Duration : 8mn 34s
Overall bit rate : 2 209 Kbps
Writing application : VirtualDubMod 1.5.10.2 (build 2540/release)
Writing library : VirtualDubMod build 2540/release
Video #0
ID : 0
Format : MPEG-4 Visual
Format profile : [email protected]
Format settings, BVOP : Yes
Format settings, QPel : Yes
Format settings, GMC : 3 warppoints
Format settings, Matrix : Default (H.263)
Codec ID :
Codec ID/Hint :
Duration : 8mn 34s
Bit rate : 1 976 Kbps
Width : 720 pixels
Height : 552 pixels
Display aspect ratio : 4:3
Frame rate : 25.000 fps
Resolution : 24 bits
Colorimetry : 4:2:0
Scan type : Progressive
Bits/(Pixel*Frame) : 0.199
Stream size : 121 MiB (89%)
Writing library : 1.2.1 (UTC 2008-12-04)
Audio #1
ID : 1
Format : AC-3
Format/Info : Audio Coding 3
Codec ID : 2000
Duration : 8mn 33s
Bit rate mode : Constant
Bit rate : 224 Kbps
Channel(s) : 2 channels
Channel positions : L R
Sampling rate : 48.0 KHz
Stream size : 13.7 MiB (10%)
Alignment : Aligned on interleaves
Interleave, duration : 40 ms (1.00 video frame)
Interleave, preload duration : 512 ms


Format : AVI
Format/Info : Audio Video Interleave
File size : 156 MiB
Duration : 9mn 53s
Overall bit rate : 2 209 Kbps
Writing application : VirtualDubMod 1.5.10.2 (build 2540/release)
Writing library : VirtualDubMod build 2540/release
Video #0
ID : 0
Format : MPEG-4 Visual
Format profile : [email protected]
Format settings, BVOP : Yes
Format settings, QPel : Yes
Format settings, GMC : 3 warppoints
Format settings, Matrix : Default (H.263)
Codec ID :
Codec ID/Hint :
Duration : 9mn 53s
Bit rate : 1 975 Kbps
Width : 720 pixels
Height : 552 pixels
Display aspect ratio : 4:3
Frame rate : 25.000 fps
Resolution : 24 bits
Colorimetry : 4:2:0
Scan type : Progressive
Bits/(Pixel*Frame) : 0.199
Stream size : 140 MiB (89%)
Writing library : 1.2.1 (UTC 2008-12-04)
Audio #1
ID : 1
Format : AC-3
Format/Info : Audio Coding 3
Codec ID : 2000
Duration : 9mn 53s
Bit rate mode : Constant
Bit rate : 224 Kbps
Channel(s) : 2 channels
Channel positions : L R
Sampling rate : 48.0 KHz
Stream size : 15.9 MiB (10%)
Alignment : Aligned on interleaves
Interleave, duration : 40 ms (1.00 video frame)
Interleave, preload duration : 512 ms
ScreenSHOT





















Джерело: &
Українські мультфільми (Збірка 8)

Якщо Ви справді бажаєте підтримати українське - після перегляду, якщо мультфільм вам сподобався, придбайте ліцензійний диск.
Підтримаймо вітчизняних аніматорів і видавців!
Замовити диск можна ТУТ!


Золотий реліз (завантажене не впливає на рейтинг)
 Трекер:    Зареєстрований   

Завантажити / скачати український мультфільм



відео для новачків



 Зареєстрований:   2011-02-22 14:26
 Розмір:   292 MB 
 Оцінка мультфільму:   9.8/10 (Голосів: 231)
   
Anton_P 
Новенький


З нами з: 08.10.09
Востаннє: 21.07.13
Повідомлень: 13

2011-02-24 11:49  
Капітошка я малий, мені всі друзі, я такий Happy))
uastork 
Частий відвідувач


З нами з: 29.11.10
Востаннє: 29.12.13
Повідомлень: 32

2011-04-09 00:33  
і яка СВОЛОТА поставила менше 5 !!?
Volovik 
VIP


З нами з: 21.02.10
Востаннє: 05.12.16
Повідомлень: 341

2011-06-13 18:47  
Тирік написано:
Format settings, GMC : 3 warppoints

а можна перекодувати без цього, бо на ASUS O!Play HD2 програє з артефактами?

klimovichjenya 
Новенький


З нами з: 16.06.11
Востаннє: 23.09.11
Повідомлень: 1

2011-06-17 22:58  
Дуже дякую. Мультик мого дитинства
мама в квадрате 
Новенький


З нами з: 10.07.11
Востаннє: 21.03.13
Повідомлень: 2

2011-07-10 22:37  
Я вам теж вдячна за такий чудовий мультик!
stepan-himka 
Свій


З нами з: 24.03.10
Востаннє: 24.11.16
Повідомлень: 139

2011-10-26 21:04  
Із задоволенням подивлюсь мульт дитинства
pr 
Новенький


З нами з: 10.11.11
Востаннє: 15.06.12
Повідомлень: 1

2011-11-10 18:25  
моя доня в захваті, побільше таких мультиків
nbcjh 
Новенький


З нами з: 10.02.12
Востаннє: 06.07.13
Повідомлень: 1

2012-03-25 12:59  
Щиро вдячний за можливість показувати дитині мультфільми рідною мовою. Дуже, дуже потрібний сайт!
HarakternyK77 
Свій


З нами з: 03.12.09
Востаннє: 05.12.16
Повідомлень: 81

2012-03-26 18:46  
ААААААААА! Мультик дитинства, клас!
Зореліт 
VIP


З нами з: 18.09.10
Востаннє: 30.11.16
Повідомлень: 317

2012-04-08 14:54  
Була ще одна серія?) оце круто) Наруто відпочиває)
imonko 
Відео Гуртом - фільмокрай
Відео Гуртом - фільмокрай


З нами з: 20.07.08
Востаннє: 31.10.16
Повідомлень: 7309

2012-04-08 16:22  
ні було дві серії
8530 
VIP


З нами з: 27.01.09
Востаннє: 23.11.16
Повідомлень: 494

2012-04-19 09:57  
nbcjh написано:
Щиро вдячний за можливість показувати дитині мультфільми рідною мовою

фільм мого дитинства

SLEM_HIRE 
Новенький


З нами з: 23.01.11
Востаннє: 14.11.16
Повідомлень: 2

2014-06-03 18:23  
Люди добрі!!! Дайте роздачу!!! БУДЬЛАСКА!!!!! я його три роки шукав "Повертайся, Капітошко"!!!!
ААААААААААААААААААААААААААААА

Frost O.S 
Новенький


З нами з: 23.03.15
Востаннє: 11.11.16
Повідомлень: 22

2015-04-02 11:44  
Не поганий мультик!Ще пом`ятаю його з дитиинства.Моя загальна оцiнка 10 iз 10.
Одессит 
Новенький


З нами з: 29.04.14
Востаннє: 03.12.16
Повідомлень: 11

2016-01-24 12:20  
Це шедевр!!! Згадав дитинсво.
Ваш часовий пояс: GMT + 2 Години

Нова тема   Відповісти