Завантажити та скачати торренти українською


Маленький великий пес (2008)

Нові коментарі

Нова тема   Відповісти
Автор Повідомлення
Тирік 
VIP


З нами з: 06.04.09
Востаннє: 17.09.13
Повідомлень: 909

2011-02-22 10:21  
Маленький великий пес (2008)


Жанр: анімація
Країна: Україна
Кіностудія / кінокомпанія: Укранімафільм
Режисер: Л. Ткачикова
Художник-постановщик: Н. Чершишева, О. Кармазіна, С. Захарова.
Звукорежисер: А. Обод
Озвучили: Б. Бенюк, А. Лисенко, р. Костюченко, М. Богданова, М. Коцюба.

Сюжет:
Історія про те, як песик та маленький хлопчик знайшли один одного

Тривалість: 00:09:36
Якість:
Відео:
кодек:
розмір кадру: 720 x 400
бітрейт: 2 000 Kб/с
Аудіо:
мова: українська
переклад: оригінал
кодек: АС-3 2.0
бітрейт: 224 Кбіт/сек

MediaINFO

Format : AVI
Format/Info : Audio Video Interleave
File size : 154 MiB
Duration : 9mn 37s
Overall bit rate : 2 234 Kbps
Writing application : VirtualDubMod 1.5.10.2 (build 2540/release)
Writing library : VirtualDubMod build 2540/release
Video #0
ID : 0
Format : MPEG-4 Visual
Format profile : [email protected]
Format settings, BVOP : Yes
Format settings, QPel : Yes
Format settings, GMC : 3 warppoints
Format settings, Matrix : Default (H.263)
Codec ID :
Codec ID/Hint :
Duration : 9mn 37s
Bit rate : 2 000 Kbps
Width : 720 pixels
Height : 400 pixels
Display aspect ratio : 16:9
Frame rate : 25.000 fps
Resolution : 24 bits
Colorimetry : 4:2:0
Scan type : Progressive
Bits/(Pixel*Frame) : 0.278
Stream size : 138 MiB (90%)
Writing library : 1.2.1 (UTC 2008-12-04)
Audio #1
ID : 1
Format : AC-3
Format/Info : Audio Coding 3
Codec ID : 2000
Duration : 9mn 37s
Bit rate mode : Constant
Bit rate : 224 Kbps
Channel(s) : 2 channels
Channel positions : L R
Sampling rate : 48.0 KHz
Stream size : 15.4 MiB (10%)
Alignment : Aligned on interleaves
Interleave, duration : 40 ms (1.00 video frame)
Interleave, preload duration : 512 ms
ScreenSHOT









Джерело: &
Українські мультфільми (Збірка 8)

Якщо Ви справді бажаєте підтримати українське - після перегляду, якщо мультфільм вам сподобався, придбайте ліцензійний диск.
Підтримаймо вітчизняних аніматорів і видавців!
Замовити диск можна ТУТ!


Золотий реліз (завантажене не впливає на рейтинг)
 Трекер:    Зареєстрований   

Завантажити / скачати український мультфільм



відео для новачків



 Зареєстрований:   2011-02-22 10:36
 Розмір:   154 MB 
 Оцінка мультфільму:   9.9/10 (Голосів: 63)
   
Piernik 
Новенький


З нами з: 19.10.09
Востаннє: 21.10.16
Повідомлень: 6

2011-10-07 20:21  
супер, дуже сподобався! дякую за роздачу, а то й не знала що такий мультик існує
-Mr-George- 
Новенький


З нами з: 04.12.12
Востаннє: 21.11.13
Повідомлень: 5

2013-02-01 22:38  
Люблю Українськи мульти:-)
Мандрівник1 
Частий відвідувач


З нами з: 26.12.12
Востаннє: 29.11.16
Повідомлень: 40

2013-03-11 15:17  
Дякую! Мультик дуже сподобався всій родині..
Мандрівник1 
Частий відвідувач


З нами з: 26.12.12
Востаннє: 29.11.16
Повідомлень: 40

2013-07-15 08:01  
Дякую!!Чудовий мультик, сподобався всім!
Ваш часовий пояс: GMT + 2 Години

Нова тема   Відповісти