Завантажити та скачати торренти українською


Крапки над І / Dot the I (2003) Ukr/Eng

Нові коментарі

Нова тема   Відповісти
Автор Повідомлення
Тирік 
VIP


З нами з: 06.04.09
Востаннє: 17.09.13
Повідомлень: 909

2011-02-21 11:42  
Крапки над І / Dot the I (2003) Ukr/Eng



Жанр: мелодрама, трилер, драма
Країна: США



Кіностудія / кінокомпанія: Summit Entertainment
Режисер: Метью Паркхілл / Matthew Parkhill
Актори: Гаель Гарсія Берналь, Наталія Вербеке, Джеймс Д’Арсі, Том Харді, Чарлі Кокс, Джон Пірсон, Таша ді Вашконселуш, Ів Обер, Міфануї Уорінг, Майкл Веббер
Сюжет:
Кармен недавно пережила в Іспанії бурхливий роман, але тепер отримала спокій і впевненість із своїм нареченим Барнабі, який просто обожнює її. Кармен впевнена, що цей шлюб дасть їй ту стабільність, про яку вона давно мріє. Напередодні свого весілля Кармен легковажно дарує поцілунок привабливому незнайомцю на ім'я Кіт, і цей єдиний поцілунок несподівано піднімає в ній стихлі пристрасті.

Тривалість: 01:27:50
Якість:
Відео:
кодек:
розмір кадру: 720x400
бітрейт: 1600 Kб/с

Аудіо 1:
мова: українська
переклад: двоголосий закадровий із телеканалу 1+1
кодек: АC-3 5.1
бітрейт: 384 Кбіт/сек

Аудіо 2:
мова: англійська
переклад: оригінал
кодек: АC-3 5.1
бітрейт: 384 Кбіт/сек


MediaINFO

Format : AVI
Format/Info : Audio Video Interleave
File size : 1.46 GiB
Duration : 1h 27mn
Overall bit rate : 2 382 Kbps
Writing application : VirtualDubMod 1.5.10.2 (build 2540/release)
Writing library : VirtualDubMod build 2540/release
Video #0
ID : 0
Format : MPEG-4 Visual
Format profile : [email protected]
Format settings, BVOP : Yes
Format settings, QPel : Yes
Format settings, GMC : 3 warppoints
Format settings, Matrix : Default (H.263)
Codec ID :
Codec ID/Hint :
Duration : 1h 27mn
Bit rate : 1 600 Kbps
Width : 720 pixels
Height : 400 pixels
Display aspect ratio : 16:9
Frame rate : 25.000 fps
Resolution : 24 bits
Colorimetry : 4:2:0
Scan type : Progressive
Bits/(Pixel*Frame) : 0.222
Stream size : 1 005 MiB (67%)
Writing library : 1.2.1 (UTC 2008-12-04)
Audio #1
ID : 1
Format : AC-3
Format/Info : Audio Coding 3
Codec ID : 2000
Duration : 1h 27mn
Bit rate mode : Constant
Bit rate : 384 Kbps
Channel(s) : 2 channels
Channel positions : L R
Sampling rate : 48.0 KHz
Stream size : 241 MiB (16%)
Alignment : Split accross interleaves
Interleave, duration : 40 ms (1.00 video frame)
Interleave, preload duration : 500 ms
Title : Ukrainian[ukr/uk]
Audio #2
ID : 2
Format : AC-3
Format/Info : Audio Coding 3
Codec ID : 2000
Duration : 1h 27mn
Bit rate mode : Constant
Bit rate : 384 Kbps
Channel(s) : 6 channels
Channel positions : Front: L C R, Surround: L R, LFE
Sampling rate : 48.0 KHz
Stream size : 241 MiB (16%)
Alignment : Split accross interleaves
Interleave, duration : 40 ms (1.00 video frame)
Interleave, preload duration : 500 ms
Title : English[eng/en]

ScreenSHOT














Особлива подяка пану Hulk1987 за надану звукову доріжку із телеканалу 1+1.

Джерело: &


Срібний реліз (на рейтинг впливає 50% завантаженого)
 Трекер:    Зареєстрований   

Завантажити / скачати фільм українською



відео для новачків



 Зареєстрований:   2011-02-21 11:42
 Розмір:   1.46 GB 
 Оцінка фільму:   9.9/10 (Голосів: 21)
   
zaika 
VIP


З нами з: 01.07.12
Востаннє: 02.12.16
Повідомлень: 947

2014-05-10 18:40  
Фільм дуже сподобався. 10/10.
Sierjoga_UA 
Новенький


З нами з: 21.02.14
Востаннє: 01.12.16
Повідомлень: 4

2014-09-28 15:16  
дайте швидкості..
Ваш часовий пояс: GMT + 2 Години

Нова тема   Відповісти