Завантажити та скачати торренти українською


Володимир Гришко - Пісні серця (2007) [FLAC] | Folk / Opera

Нові коментарі

Нова тема   Відповісти
Автор Повідомлення
civ 
VIP


З нами з: 16.02.11
Востаннє: 06.12.16
Повідомлень: 429

2011-02-19 09:41  
Володимир Гришко - Пісні серця (2007) [FLAC] | Folk / Opera



Стиль: Folk / Opera
Країна, місто: Україна, Київ
Сайти: Офіційний сайт
Видавець: Наш Формат
Пісні:
  1. Пісня про рушник
  2. Чорнобривці
  3. Ніч яка місячна
  4. На долині туман
  5. Летять, ніби чайки
  6. Червона рута
  7. Марічка
  8. Кохана
  9. Черемшина
  10. Києве мій
  11. Два кольори
  12. Дзвони Лаври
  13. Я — син України
  14. Червона калина

Тривалість: 00:54:30
Мова: українська
Аудіо-кодек: FLAC
Бітрейт: 646 кб/с
Джерело: власний ріп
Тип ріпу: один трек; CUE та обкладинки вбудовані у файл

Додаткова інформація:
Цей диск - аудіододаток до однойменного документального циклу телеканалу "1+1".
Пісні "Ніч яка місячна", "Червона калина", "Дзвони Лаври", "Я — України син" не були представлені на відео і є додатком від Володимира Гришка.
Альбом присвячено пам’яті Лариси Роднянської.

Опис:
Коли оперний співак, а тим більше такий визначний, береться співати народні чи естрадні пісні – це завжди приємно і цікаво. Тому що виконавський клас тут просто неперевершений – а значить, і улюблені пісні звучать саме настільки добре, наскільки цього можна чекати від людського голосу. Власне, переконатися в тому, що Володимир Гришко чудово вправляється не тільки з оперними аріями, нагода вже була – пам’ятаєте альбом "Усім матерям присвячується..."? Отже, можна вважати, що "Пісні серця" є логічним продовженням того почину. Адже і тут теж зібрано справжні перлини – пісні, які вже багато років являють собою гордість української естради. І можна бути певним, що вони будуть популярними ще не рік, і не десять – довше. Тим більше – коли вони звучать у настільки гарному виконанні, як тут. Як не крути, а таки важливо, щоб еталони час від часу звучали саме як еталони – інакше за авангардними обробками можуть загубитися основи, з яких все росте. Ну а такі роботи, як ця – якраз до основ нас і повертають. Втім, деякі пісні і тут теж звучать по-новому, але зроблено це обережно – і тому радує.

Умка
CUE

REM GENRE Folk
REM DATE 2007
REM DISCID B30E270F
PERFORMER "Володимир Гришко"
TITLE "Пісні серця"
REM REPLAYGAIN_ALBUM_GAIN -3.49 dB
REM REPLAYGAIN_ALBUM_PEAK 0.711426
FILE "Володимир Гришко - 2007 - Пісні серця.wav" WAVE
TRACK 01 AUDIO
TITLE "Пісня про рушник"
PERFORMER "Володимир Гришко"
REM REPLAYGAIN_TRACK_GAIN -2.22 dB
REM REPLAYGAIN_TRACK_PEAK 0.634735
FLAGS DCP
INDEX 01 00:00:00
TRACK 02 AUDIO
TITLE "Чорнобривці"
PERFORMER "Володимир Гришко"
REM REPLAYGAIN_TRACK_GAIN -2.06 dB
REM REPLAYGAIN_TRACK_PEAK 0.587372
FLAGS DCP
INDEX 00 05:11:03
INDEX 01 05:13:03
TRACK 03 AUDIO
TITLE "Ніч яка місячна"
PERFORMER "Володимир Гришко"
REM REPLAYGAIN_TRACK_GAIN -4.49 dB
REM REPLAYGAIN_TRACK_PEAK 0.648682
FLAGS DCP
INDEX 00 09:31:05
INDEX 01 09:33:05
TRACK 04 AUDIO
TITLE "На долині туман"
PERFORMER "Володимир Гришко"
REM REPLAYGAIN_TRACK_GAIN -3.18 dB
REM REPLAYGAIN_TRACK_PEAK 0.644836
FLAGS DCP
INDEX 00 11:52:08
INDEX 01 11:54:08
TRACK 05 AUDIO
TITLE "Летять, ніби чайки"
PERFORMER "Володимир Гришко"
REM REPLAYGAIN_TRACK_GAIN -1.60 dB
REM REPLAYGAIN_TRACK_PEAK 0.619995
FLAGS DCP
INDEX 00 14:00:11
INDEX 01 14:02:11
TRACK 06 AUDIO
TITLE "Червона рута"
PERFORMER "Володимир Гришко"
REM REPLAYGAIN_TRACK_GAIN -2.72 dB
REM REPLAYGAIN_TRACK_PEAK 0.610107
FLAGS DCP
INDEX 00 18:30:14
INDEX 01 18:32:14
TRACK 07 AUDIO
TITLE "Марічка"
PERFORMER "Володимир Гришко"
REM REPLAYGAIN_TRACK_GAIN -2.16 dB
REM REPLAYGAIN_TRACK_PEAK 0.572815
FLAGS DCP
INDEX 00 21:37:17
INDEX 01 21:39:17
TRACK 08 AUDIO
TITLE "Кохана"
PERFORMER "Володимир Гришко"
REM REPLAYGAIN_TRACK_GAIN -4.04 dB
REM REPLAYGAIN_TRACK_PEAK 0.616364
FLAGS DCP
INDEX 00 25:02:20
INDEX 01 25:04:20
TRACK 09 AUDIO
TITLE "Черемшина"
PERFORMER "Володимир Гришко"
REM REPLAYGAIN_TRACK_GAIN -1.84 dB
REM REPLAYGAIN_TRACK_PEAK 0.595154
FLAGS DCP
INDEX 00 29:30:24
INDEX 01 29:32:24
TRACK 10 AUDIO
TITLE "Києве мій"
PERFORMER "Володимир Гришко"
REM REPLAYGAIN_TRACK_GAIN -2.25 dB
REM REPLAYGAIN_TRACK_PEAK 0.615265
FLAGS DCP
INDEX 00 35:13:26
INDEX 01 35:15:26
TRACK 11 AUDIO
TITLE "Два кольори"
PERFORMER "Володимир Гришко"
REM REPLAYGAIN_TRACK_GAIN -4.76 dB
REM REPLAYGAIN_TRACK_PEAK 0.711426
FLAGS DCP
INDEX 00 38:32:29
INDEX 01 38:34:29
TRACK 12 AUDIO
TITLE "Дзвони Лаври"
PERFORMER "Володимир Гришко"
REM REPLAYGAIN_TRACK_GAIN -3.69 dB
REM REPLAYGAIN_TRACK_PEAK 0.681854
FLAGS DCP
INDEX 00 42:42:33
INDEX 01 42:44:33
TRACK 13 AUDIO
TITLE "Я — син України"
PERFORMER "Володимир Гришко"
REM REPLAYGAIN_TRACK_GAIN -3.80 dB
REM REPLAYGAIN_TRACK_PEAK 0.629211
FLAGS DCP
INDEX 00 46:50:36
INDEX 01 46:52:36
TRACK 14 AUDIO
TITLE "Червона калина"
PERFORMER "Володимир Гришко"
REM REPLAYGAIN_TRACK_GAIN -1.02 dB
REM REPLAYGAIN_TRACK_PEAK 0.561981
FLAGS DCP
INDEX 00 50:29:39
INDEX 01 50:31:39
Data

BONUS_VIDEO.avi
Відеозапис з концертної зали. Зняли музикантів, поки ті готувалися, як на мобілку.
Тривалість: 00:01:31
Відео:
кодек: MPEG 4
розмір кадру: 512 х 384
бітрейт: 1181 кб/с
Аудіо:
кодек: PCM
бітрейт: 1 411.2 кб/с
Якщо Ви справді бажаєте підтримати українське - після прослуховування, якщо музика вам сподобалась, придбайте ліцензійний диск. Підтримаймо вітчизняних виконавців!


Срібний реліз (на рейтинг впливає 50% завантаженого)
 Трекер:    Зареєстрований   

Завантажити / скачати українську музику



відео для новачків



 Зареєстрований:   2011-02-22 23:18
 Розмір:   297 MB 
 Оцінка музики:   8.9/10 (Голосів: 7)
 Володимир гришко - Пісні серця (2007) [FLAC] | Folk / Opera
   
civ 
VIP


З нами з: 16.02.11
Востаннє: 06.12.16
Повідомлень: 429

2011-02-19 09:50  
Сам відеоцикл у якості є на ukraine.ck.ua. Всі 10 фільмів, разом 7,3 Гб. Я колись давно його звідти стягнув. Питання: чи потрібно дублювати відео на Гуртом?
Skiff 
музика
музика


З нами з: 12.11.07
Востаннє: 06.12.16
Повідомлень: 3051

2011-02-19 12:27  
civ написано:
потрібно дублювати відео на Гуртом?
Думаю, так.
ssTAss 
Модератор музики


З нами з: 05.07.08
Востаннє: 06.12.16
Повідомлень: 10946

2011-02-19 19:53  
можна фото задньої сторони коробки?
чому питаю, бо так видається, що це не ліцензія
fooCDtect
хоча є варіант що так записали
треба щоб ще хтось перевірив, в кого є диск

civ 
VIP


З нами з: 16.02.11
Востаннє: 06.12.16
Повідомлень: 429

2011-02-19 20:25  
Диска ріпав власноруч. Сам диск купив через Інтернет на сайті "Нашого формату", тобто у видавця.
Логів ЕАС я тоді ще не зберігав. Але якість треків не була нижчою за 97% ніколи.

ssTAss 
Модератор музики


З нами з: 05.07.08
Востаннє: 06.12.16
Повідомлень: 10946

2011-02-19 20:55  
дякую за обкладинку (може так всі скани викладете? cd, back, folder... і до Івасюка теж.. а шо? як мід так ложкою, нє?)

на рахунок диску - мабуть так зле записали з емпетришок
ось спектр першого треку (треба "нашому формату" фе виразити)
спектр

Додано через 3 хвилини 10 секунд:

12 трек взагалі обрізка на 10 тис.
спектр
Додано через 1 хвилину 42 секунди:

і ще
бачу на диску було відео, може б одразу і його сюди виклали?

Додано через 11 хвилин 13 секунд:

з "Івасюком" теж саме... написав в темі

civ 
VIP


З нами з: 16.02.11
Востаннє: 06.12.16
Повідомлень: 429

2011-02-19 21:31  
Я не пам’ятаю, щоб на диску було відео...
Завтра дістану диска й перевірю.
Щодо сканів обкладинок. Я вбудовую тільки перед, зад обкладинки та зображення диска. Якщо потрібно більше сканів - треба почекати. Сканер маю на роботі.

ssTAss 
Модератор музики


З нами з: 05.07.08
Востаннє: 06.12.16
Повідомлень: 10946

2011-02-19 22:09  
civ написано:
Я вбудовую тільки перед, зад обкладинки та зображення диска

в фубарі показує тільки одну

civ 
VIP


З нами з: 16.02.11
Востаннє: 06.12.16
Повідомлень: 429

2011-02-19 22:16  
Ось тільки що перевірив трек audiochecker.
audiochecker

AUDIOCHECKER v1.2 - by Dester - [email protected]
~~~~~~~~~~~~~~~~~

Started at: субота, 19. 02. 2011. - 21:47.27

3 files found

1 -===- C:\Users\civ\Downloads\Torrents\Various - Володимир Івасюк. Камерно-інструментальна музика (2009).flac
Extracted successfully
Conclusion: This track looks like CDDA with probability 86%
Tempfile successfully deleted.

2 -===- C:\Users\civ\Downloads\Torrents\Володимир Гришко - Пісні серця (2007).flac
Extracted successfully
Conclusion: This track looks like MPEG with probability 95%
Tempfile successfully deleted.

3 -===- C:\Users\civ\Downloads\Torrents\Сестри Тельнюк - Live краще (2009).flac
Extracted successfully
Conclusion: This track looks like CDDA with probability 99%
Tempfile successfully deleted.

Finished at: субота, 19. 02. 2011. - 22:08.25 (operation time: 0:20.57)
Шось знову у мене з тобою непорозуміння. У цьому флаці 3 скани: обкладинка, зворот, диск (як і у всіх інших, що я роблю). І foobar чесно їх всі показує. Будь-яких файлів зображень у теці немає, тому foobar не може показати нічого "лівого".

ssTAss 
Модератор музики


З нами з: 05.07.08
Востаннє: 06.12.16
Повідомлень: 10946

2011-02-19 22:56  
civ написано:
This track looks like MPEG with probability 95%

ну, і про шо це говорить?
зробив вам потрековий аналіз... дуууже невтішний (див. скріншоти)
civ написано:
І foobar чесно їх всі показує.

хм, видно в мене не ті настройки фубару
показує тільки одну
тому, імхо, краще скани окремо викладати
можна попросити? (якщо не в реліз, то хоча б приватно скинути)

Додано через 32 хвилини 18 секунд:

ssTAss написано:
можна попросити? (якщо не в реліз, то хоча б приватно скинути)

все, вже не треба
через mp3tag витягнув всі три
а фубар чомусь тільки одну показував

civ 
VIP


З нами з: 16.02.11
Востаннє: 06.12.16
Повідомлень: 429

2011-02-20 10:17  
Додав обкладинки.
civ 
VIP


З нами з: 16.02.11
Востаннє: 06.12.16
Повідомлень: 429

2011-02-22 23:26  
Оновив роздачу.
Додав повні скани обкладинок та відео, що було на диску.
Сам flac файл не змінився, але в роздачі тепер тека. Будьте уважні, щоби не завантажувати музику знову.

Додано через 4 хвилини 50 секунд:

Хоча, як на мене, те відео якесь дурнувате. Нащо його туди вліпили?..

ssTAss 
Модератор музики


З нами з: 05.07.08
Востаннє: 06.12.16
Повідомлень: 10946

2011-02-22 23:30  
civ написано:
та відео, що було на диску.

треба оформити за правилами

mr.killer 
Свій


З нами з: 11.08.10
Востаннє: 03.12.16
Повідомлень: 146

2016-09-03 07:55  
Ваш .cue швидше всього не буде працювати в плеєрі бо файл .FLAC має назву Володимир Гришко - Пісні серця (2007).flac, а в .cue вказано Володимир Гришко - 2007 - Пісні серця, до того ж розширення .WAV (для фубара це проблема, для АІМПа ні)
civ 
VIP


З нами з: 16.02.11
Востаннє: 06.12.16
Повідомлень: 429

2016-09-03 12:02  
mr.killer, качаємо реліз і дивимось, що всередині, а не чешемо марно язиком.
Ваш часовий пояс: GMT + 2 Години

Нова тема   Відповісти