Завантажити та скачати торренти українською


Іван Козловський - Дискографія (3 альбоми) (2004-2006) [FLAC] | Folk / Opera

Нові коментарі

Нова тема   Відповісти
Автор Повідомлення
civ 
VIP


З нами з: 16.02.11
Востаннє: 08.12.16
Повідомлень: 429

2011-02-18 20:55  
Іван Козловський - Дискографія (3 альбоми) (2004-2006) [FLAC] | Folk / Opera


Стиль: Folk / Opera
Країна, місто: Україна, с. Мар’янівка (Київська обл.) / Росія, Москва
Видавець: Moroz Records
Альбоми:
Українські народні пісні. Частина 1 «Засвистали козаченьки» (2004)

Назва: Українські народні пісні. Частина 1 «Засвистали козаченьки»
Рік: 2004
Видавець: Moroz Records

Пісні:

    01. Засвистали козаченьки
    02. Дивлюсь я на небо
    03. Гуляв чумак на риночку
    04. Ой, у полі криниченька
    05. Ой, зійди, зійди, ясен місяцю
    06. Ой, дівчино, шумить гай
    07. Ой, у полі озерце
    08. Реве та стогне Дніпр широкий
    09. Їхав козак на війноньку
    10. Гей, на високій полонині
    11. У бесіді з другими
    12. Повій, вітре, на Вкраїну
    13. Чуєш, брате мій
    14. Без тебе, Олесю
    15. Жду я тебе чорнобрива
    16. Коли розлучаються двоє
    17. Де ти бродиш, моя доле


Тривалість: 01:18:02
Мова: українська
Бітрейт: 567 кб/с
Джерело: власний ріп
Тип ріпу: один трек; CUE та обкладинки вбудовані у файл
CUE

REM GENRE Folk
REM DATE 2004
REM DISCID F3124911
PERFORMER "Іван Козловський"
TITLE "Українські народні пісні. Частина 1 «Засвистали козаченьки»"
REM REPLAYGAIN_ALBUM_GAIN -5.62 dB
REM REPLAYGAIN_ALBUM_PEAK 0.999969
FILE "Іван Козловський - Українські народні пісні. Частина 1. Засвистали козаченьки.wav" WAVE
TRACK 01 AUDIO
TITLE "Засвистали козаченьки"
PERFORMER "Іван Козловський"
REM REPLAYGAIN_TRACK_GAIN -7.04 dB
REM REPLAYGAIN_TRACK_PEAK 0.999969
INDEX 01 00:00:00
TRACK 02 AUDIO
TITLE "Дивлюсь я на небо"
PERFORMER "Іван Козловський"
REM REPLAYGAIN_TRACK_GAIN -6.48 dB
REM REPLAYGAIN_TRACK_PEAK 0.984955
INDEX 01 02:57:41
TRACK 03 AUDIO
TITLE "Гуляв чумак на риночку"
PERFORMER "Іван Козловський"
REM REPLAYGAIN_TRACK_GAIN -4.15 dB
REM REPLAYGAIN_TRACK_PEAK 0.975800
INDEX 01 06:48:44
TRACK 04 AUDIO
TITLE "Ой, у полі криниченька"
PERFORMER "Іван Козловський"
REM REPLAYGAIN_TRACK_GAIN -7.57 dB
REM REPLAYGAIN_TRACK_PEAK 0.984161
INDEX 01 10:51:59
TRACK 05 AUDIO
TITLE "Ой, зійди, зійди, ясен місяцю"
PERFORMER "Іван Козловський"
REM REPLAYGAIN_TRACK_GAIN -4.44 dB
REM REPLAYGAIN_TRACK_PEAK 0.985107
INDEX 01 16:18:18
TRACK 06 AUDIO
TITLE "Ой, дівчино, шумить гай"
PERFORMER "Іван Козловський"
REM REPLAYGAIN_TRACK_GAIN -4.59 dB
REM REPLAYGAIN_TRACK_PEAK 0.980377
INDEX 01 24:00:56
TRACK 07 AUDIO
TITLE "Ой, у полі озерце"
PERFORMER "Іван Козловський"
REM REPLAYGAIN_TRACK_GAIN -0.21 dB
REM REPLAYGAIN_TRACK_PEAK 0.992065
INDEX 01 28:30:66
TRACK 08 AUDIO
TITLE "Реве та стогне Дніпр широкий"
PERFORMER "Іван Козловський"
REM REPLAYGAIN_TRACK_GAIN -6.70 dB
REM REPLAYGAIN_TRACK_PEAK 0.989075
INDEX 01 37:51:00
TRACK 09 AUDIO
TITLE "Їхав козак на війноньку"
PERFORMER "Іван Козловський"
REM REPLAYGAIN_TRACK_GAIN -0.73 dB
REM REPLAYGAIN_TRACK_PEAK 0.977295
INDEX 01 42:43:22
TRACK 10 AUDIO
TITLE "Гей, на високій полонині"
PERFORMER "Іван Козловський"
REM REPLAYGAIN_TRACK_GAIN -6.49 dB
REM REPLAYGAIN_TRACK_PEAK 0.982544
INDEX 01 45:26:00
TRACK 11 AUDIO
TITLE "У бесіді з другими"
PERFORMER "Іван Козловський"
REM REPLAYGAIN_TRACK_GAIN -4.09 dB
REM REPLAYGAIN_TRACK_PEAK 0.982086
INDEX 01 48:23:06
TRACK 12 AUDIO
TITLE "Повій, вітре, на Вкраїну"
PERFORMER "Іван Козловський"
REM REPLAYGAIN_TRACK_GAIN -7.78 dB
REM REPLAYGAIN_TRACK_PEAK 0.989166
INDEX 01 52:20:11
TRACK 13 AUDIO
TITLE "Чуєш, брате мій"
PERFORMER "Іван Козловський"
REM REPLAYGAIN_TRACK_GAIN -4.00 dB
REM REPLAYGAIN_TRACK_PEAK 0.977295
INDEX 01 55:57:37
TRACK 14 AUDIO
TITLE "Без тебе, Олесю"
PERFORMER "Іван Козловський"
REM REPLAYGAIN_TRACK_GAIN -6.58 dB
REM REPLAYGAIN_TRACK_PEAK 0.983948
INDEX 01 59:08:60
TRACK 15 AUDIO
TITLE "Жду я тебе чорнобрива"
PERFORMER "Іван Козловський"
REM REPLAYGAIN_TRACK_GAIN -2.27 dB
REM REPLAYGAIN_TRACK_PEAK 0.990417
INDEX 01 63:24:46
TRACK 16 AUDIO
TITLE "Коли розлучаються двоє"
PERFORMER "Іван Козловський"
REM REPLAYGAIN_TRACK_GAIN -4.59 dB
REM REPLAYGAIN_TRACK_PEAK 0.925018
INDEX 01 69:46:43
TRACK 17 AUDIO
TITLE "Де ти бродиш, моя доле"
PERFORMER "Іван Козловський"
REM REPLAYGAIN_TRACK_GAIN -4.10 dB
REM REPLAYGAIN_TRACK_PEAK 0.981720
INDEX 01 72:34:29
Українські народні пісні. Частина 2 «Чорнії брови, карії очі» (2004)

Назва: Українські народні пісні. Частина 2 «Чорнії брови, карії очі»
Рік: 2004
Видавець: Moroz Records

Пісні:

    01. Чорнії брови, карії очі
    02. Пісня Петра «Сонце низенько, вечір близенько»
    03. Монолог та пісня Петра «Ой, не шуми, луже»
    04. Пісня Петра «Ой, я нещасний»
    05. Фінальна пісня Петра з хором «Де згода в сімействі»
    06. Стоїть гора високая
    07. Мені однаково
    08. Огні горять
    09. Я другої не любив, тай любить не буду
    10. По садочку хожу
    11. Скажи мені правду
    12. І широку долину
    13. Сусідко
    14. Глибока криниця
    15. Іде звізда чудна
    16. Ірод-цар
    17. Добрий вечір
    18. Нова рада
    19. По всьому світу


Тривалість: 01:18:02
Мова: українська
Бітрейт: 640 кб/с
Джерело: власний ріп
Тип ріпу: один трек; CUE та обкладинки вбудовані у файл
CUE

REM GENRE Folk
REM DATE 2004
REM DISCID 1B124A13
PERFORMER "Іван Козловський"
TITLE "Українські народні пісні. Частина 2 «Чорнії брови, карії очі»"
REM REPLAYGAIN_ALBUM_GAIN -4.79 dB
REM REPLAYGAIN_ALBUM_PEAK 1.000000
FILE "Іван Козловський - Українські народні пісні. Частина 2. Чорнії брови, карії очі.wav" WAVE
TRACK 01 AUDIO
TITLE "Чорнії брови, карії очі"
PERFORMER "Іван Козловський"
REM REPLAYGAIN_TRACK_GAIN -6.19 dB
REM REPLAYGAIN_TRACK_PEAK 1.000000
INDEX 01 00:00:00
TRACK 02 AUDIO
TITLE "Пісня Петра «Сонце низенько, вечір близенько»"
PERFORMER "Іван Козловський"
REM REPLAYGAIN_TRACK_GAIN -7.32 dB
REM REPLAYGAIN_TRACK_PEAK 0.999969
INDEX 01 02:09:73
TRACK 03 AUDIO
TITLE "Монолог та пісня Петра «Ой, не шуми, луже»"
PERFORMER "Іван Козловський"
REM REPLAYGAIN_TRACK_GAIN -4.14 dB
REM REPLAYGAIN_TRACK_PEAK 0.999969
INDEX 01 05:06:29
TRACK 04 AUDIO
TITLE "Пісня Петра «Ой, я нещасний»"
PERFORMER "Іван Козловський"
REM REPLAYGAIN_TRACK_GAIN -6.35 dB
REM REPLAYGAIN_TRACK_PEAK 1.000000
INDEX 01 09:32:15
TRACK 05 AUDIO
TITLE "Фінальна пісня Петра з хором «Де згода в сімействі»"
PERFORMER "Іван Козловський"
REM REPLAYGAIN_TRACK_GAIN -5.04 dB
REM REPLAYGAIN_TRACK_PEAK 0.999969
INDEX 01 15:41:13
TRACK 06 AUDIO
TITLE "Стоїть гора високая"
PERFORMER "Іван Козловський"
REM REPLAYGAIN_TRACK_GAIN -3.88 dB
REM REPLAYGAIN_TRACK_PEAK 0.999969
INDEX 01 17:52:70
TRACK 07 AUDIO
TITLE "Мені однаково"
PERFORMER "Іван Козловський"
REM REPLAYGAIN_TRACK_GAIN -3.57 dB
REM REPLAYGAIN_TRACK_PEAK 0.999969
INDEX 01 27:03:57
TRACK 08 AUDIO
TITLE "Огні горять"
PERFORMER "Іван Козловський"
REM REPLAYGAIN_TRACK_GAIN -5.65 dB
REM REPLAYGAIN_TRACK_PEAK 1.000000
INDEX 01 32:44:20
TRACK 09 AUDIO
TITLE "Я другої не любив, тай любить не буду"
PERFORMER "Іван Козловський"
REM REPLAYGAIN_TRACK_GAIN -6.04 dB
REM REPLAYGAIN_TRACK_PEAK 1.000000
INDEX 01 34:53:53
TRACK 10 AUDIO
TITLE "По садочку хожу"
PERFORMER "Іван Козловський"
REM REPLAYGAIN_TRACK_GAIN -4.43 dB
REM REPLAYGAIN_TRACK_PEAK 1.000000
INDEX 01 37:36:73
TRACK 11 AUDIO
TITLE "Скажи мені правду"
PERFORMER "Іван Козловський"
REM REPLAYGAIN_TRACK_GAIN -2.56 dB
REM REPLAYGAIN_TRACK_PEAK 0.999969
INDEX 01 41:18:21
TRACK 12 AUDIO
TITLE "І широку долину"
PERFORMER "Іван Козловський"
REM REPLAYGAIN_TRACK_GAIN -3.88 dB
REM REPLAYGAIN_TRACK_PEAK 1.000000
INDEX 01 49:17:48
TRACK 13 AUDIO
TITLE "Сусідко"
PERFORMER "Іван Козловський"
REM REPLAYGAIN_TRACK_GAIN -4.21 dB
REM REPLAYGAIN_TRACK_PEAK 0.993866
INDEX 01 55:14:37
TRACK 14 AUDIO
TITLE "Глибока криниця"
PERFORMER "Іван Козловський"
REM REPLAYGAIN_TRACK_GAIN -4.71 dB
REM REPLAYGAIN_TRACK_PEAK 0.794312
INDEX 01 56:13:29
TRACK 15 AUDIO
TITLE "Іде звізда чудна"
PERFORMER "Іван Козловський"
REM REPLAYGAIN_TRACK_GAIN -3.79 dB
REM REPLAYGAIN_TRACK_PEAK 0.852081
INDEX 01 57:51:74
TRACK 16 AUDIO
TITLE "Ірод-цар"
PERFORMER "Іван Козловський"
REM REPLAYGAIN_TRACK_GAIN -3.09 dB
REM REPLAYGAIN_TRACK_PEAK 0.927887
INDEX 01 64:10:67
TRACK 17 AUDIO
TITLE "Добрий вечір"
PERFORMER "Іван Козловський"
REM REPLAYGAIN_TRACK_GAIN -4.20 dB
REM REPLAYGAIN_TRACK_PEAK 0.964752
INDEX 01 67:24:44
TRACK 18 AUDIO
TITLE "Нова рада"
PERFORMER "Іван Козловський"
REM REPLAYGAIN_TRACK_GAIN -2.55 dB
REM REPLAYGAIN_TRACK_PEAK 0.917206
INDEX 01 72:30:26
TRACK 19 AUDIO
TITLE "По всьому світу"
PERFORMER "Іван Козловський"
REM REPLAYGAIN_TRACK_GAIN -5.46 dB
REM REPLAYGAIN_TRACK_PEAK 0.999969
INDEX 01 75:16:72
Grand Collection. Іван Козловський. Частина 1 (2006)

Назва: Grand Collection. Іван Козловський. Частина 1
Рік: 2006
Видавець: Moroz Records

Пісні:

    01. Засвистали козаченьки
    02. Дивлюсь я на небо
    03. Чорнії брови, карії очі
    04. Гуляв чумак на риночку
    05. Ой, у полі криниченька
    06. Ой, зійди, зійди ясен місяцю
    07. Ой, дівчина, шумить гай
    08. Реве та стогне Дніпр широкий
    09. Їхав козак на війноньку
    10. Гей, на високій полонині
    11. Повій, вітре, на Вкраїну
    12. Без тебе, Олесю
    13. По садочку ходжу
    14. Коли розлучаються двоє
    15. Де ти бродиш, моя доле
    16. Пісня Петра «Сонце низенько, вечір близенько»
    17. Огні горять


Тривалість: 01:06:22
Мова: українська
Бітрейт: 561 кб/с
Джерело: власний ріп
Тип ріпу: один трек; CUE та обкладинки вбудовані у файл
CUE

REM GENRE Folk
REM DATE 2006
REM DISCID F70F8E11
PERFORMER "Іван Козловський"
TITLE "Grand Collection. Іван Козловський. Частина 1"
REM REPLAYGAIN_ALBUM_GAIN -6.36 dB
REM REPLAYGAIN_ALBUM_PEAK 1.000000
FILE "Іван Козловський - Grand Collection. Іван Козловський. Частина 1.wav" WAVE
TRACK 01 AUDIO
TITLE "Засвистали козаченьки"
PERFORMER "Іван Козловський"
REM REPLAYGAIN_TRACK_GAIN -7.05 dB
REM REPLAYGAIN_TRACK_PEAK 0.999969
INDEX 01 00:00:00
TRACK 02 AUDIO
TITLE "Дивлюсь я на небо"
PERFORMER "Іван Козловський"
REM REPLAYGAIN_TRACK_GAIN -6.47 dB
REM REPLAYGAIN_TRACK_PEAK 0.984955
INDEX 00 02:55:14
INDEX 01 02:58:14
TRACK 03 AUDIO
TITLE "Чорнії брови, карії очі"
PERFORMER "Іван Козловський"
REM REPLAYGAIN_TRACK_GAIN -7.21 dB
REM REPLAYGAIN_TRACK_PEAK 0.847870
INDEX 00 06:46:55
INDEX 01 06:49:55
TRACK 04 AUDIO
TITLE "Гуляв чумак на риночку"
PERFORMER "Іван Козловський"
REM REPLAYGAIN_TRACK_GAIN -4.17 dB
REM REPLAYGAIN_TRACK_PEAK 0.975800
INDEX 00 08:57:37
INDEX 01 09:00:37
TRACK 05 AUDIO
TITLE "Ой, у полі криниченька"
PERFORMER "Іван Козловський"
REM REPLAYGAIN_TRACK_GAIN -7.60 dB
REM REPLAYGAIN_TRACK_PEAK 0.984161
INDEX 00 13:01:55
INDEX 01 13:04:55
TRACK 06 AUDIO
TITLE "Ой, зійди, зійди ясен місяцю"
PERFORMER "Іван Козловський"
REM REPLAYGAIN_TRACK_GAIN -5.42 dB
REM REPLAYGAIN_TRACK_PEAK 0.876648
INDEX 00 18:29:14
INDEX 01 18:32:14
TRACK 07 AUDIO
TITLE "Ой, дівчина, шумить гай"
PERFORMER "Іван Козловський"
REM REPLAYGAIN_TRACK_GAIN -4.60 dB
REM REPLAYGAIN_TRACK_PEAK 0.980377
INDEX 00 26:12:22
INDEX 01 26:15:22
TRACK 08 AUDIO
TITLE "Реве та стогне Дніпр широкий"
PERFORMER "Іван Козловський"
REM REPLAYGAIN_TRACK_GAIN -6.69 dB
REM REPLAYGAIN_TRACK_PEAK 0.989075
INDEX 00 30:43:25
INDEX 01 30:46:25
TRACK 09 AUDIO
TITLE "Їхав козак на війноньку"
PERFORMER "Іван Козловський"
REM REPLAYGAIN_TRACK_GAIN -0.75 dB
REM REPLAYGAIN_TRACK_PEAK 0.977295
INDEX 00 35:36:70
INDEX 01 35:39:70
TRACK 10 AUDIO
TITLE "Гей, на високій полонині"
PERFORMER "Іван Козловський"
REM REPLAYGAIN_TRACK_GAIN -6.39 dB
REM REPLAYGAIN_TRACK_PEAK 0.982544
INDEX 00 38:20:32
INDEX 01 38:23:32
TRACK 11 AUDIO
TITLE "Повій, вітре, на Вкраїну"
PERFORMER "Іван Козловський"
REM REPLAYGAIN_TRACK_GAIN -7.79 dB
REM REPLAYGAIN_TRACK_PEAK 0.989166
INDEX 00 41:18:12
INDEX 01 41:21:12
TRACK 12 AUDIO
TITLE "Без тебе, Олесю"
PERFORMER "Іван Козловський"
REM REPLAYGAIN_TRACK_GAIN -6.54 dB
REM REPLAYGAIN_TRACK_PEAK 0.983948
INDEX 00 44:56:49
INDEX 01 44:59:49
TRACK 13 AUDIO
TITLE "По садочку ходжу"
PERFORMER "Іван Козловський"
REM REPLAYGAIN_TRACK_GAIN -4.34 dB
REM REPLAYGAIN_TRACK_PEAK 1.000000
INDEX 00 49:12:69
INDEX 01 49:15:69
TRACK 14 AUDIO
TITLE "Коли розлучаються двоє"
PERFORMER "Іван Козловський"
REM REPLAYGAIN_TRACK_GAIN -6.12 dB
REM REPLAYGAIN_TRACK_PEAK 0.925659
INDEX 00 52:54:74
INDEX 01 52:57:74
TRACK 15 AUDIO
TITLE "Де ти бродиш, моя доле"
PERFORMER "Іван Козловський"
REM REPLAYGAIN_TRACK_GAIN -4.08 dB
REM REPLAYGAIN_TRACK_PEAK 0.981720
INDEX 00 55:44:02
INDEX 01 55:47:02
TRACK 16 AUDIO
TITLE "Пісня Петра «Сонце низенько, вечір близенько»"
PERFORMER "Іван Козловський"
REM REPLAYGAIN_TRACK_GAIN -7.35 dB
REM REPLAYGAIN_TRACK_PEAK 0.999969
INDEX 00 61:12:32
INDEX 01 61:15:32
TRACK 17 AUDIO
TITLE "Огні горять"
PERFORMER "Іван Козловський"
REM REPLAYGAIN_TRACK_GAIN -5.73 dB
REM REPLAYGAIN_TRACK_PEAK 1.000000
INDEX 00 64:09:52
INDEX 01 64:12:52
Тривалість: 03:42:26
Мова: українська
Аудіо-кодек: FLAC
Бітрейт: 561-640 кб/с
Джерело: власний ріп
Додаткова інформація:
Всі записи нашого Видатного земляка знаходяться у Москві. Всі ці 3 диски були видані росіянами. Ці люди не дуже сумлінно поставилися до своїх обов’язків, тому якість видань не дуже висока - ніяка поліграфія, помилки у назвах. Добре хоч самі диски нормальної якості.




Якщо Ви справді бажаєте підтримати українське - після прослуховування, якщо музика вам сподобалась, придбайте ліцензійний диск. Підтримаймо вітчизняних виконавців!


Золотий реліз (завантажене не впливає на рейтинг)
 Трекер:    Зареєстрований   

Завантажити / скачати українську музику



відео для новачків



 Зареєстрований:   2011-02-18 20:55
 Розмір:   940 MB 
 Оцінка музики:   9.3/10 (Голосів: 18)
 Іван Козловський - Дискографія [FLAC] | Folk, Opera
   
ssTAss 
Модератор музики


З нами з: 05.07.08
Востаннє: 09.12.16
Повідомлень: 10948

2011-02-18 23:47  
реліз чудовий (я про музику, а не про оформлення)
civ написано:
Іван Козловський - Дискографія [FLAC] | Folk, Opera

Іван Козловський - Дискографія (3 альбоми) [FLAC] | Folk / Opera
додайте якусь загальну обкладинку (фото, наприклад)
civ написано:
Країна, місто: Україна

Україна, с. Мар'янівка (Київська обл.)
civ написано:
Сайти: Сторінка на Вікіпедії - http://uk.wikipedia.org/wiki/ван_Козловський

цю стрічку прибрати
натомість написати стрічку "Видавець"
civ написано:
Додаткова інформація:

перед цією стрічкою має бути
Тривалість:
Мова:
Аудіо-кодек:
Бітрейт:
Джерело:

прошу поставити і заповнити (бачу, що до кожного альбому написали.. тепер загальну інформацію)

civ 
VIP


З нами з: 16.02.11
Востаннє: 08.12.16
Повідомлень: 429

2011-02-19 00:31  
В Інеті знайшов тільки фото І.Козловського на Вікіпедії. То його і вставив.
Гадаю, що треба зазначити також і Москву, бо саме там минуло його творче життя.

Додано через 3 хвилини 20 секунд:

Другого диску серії Grand Collection я не зустрічав. Схоже, що більше так і не видали.

ssTAss 
Модератор музики


З нами з: 05.07.08
Востаннє: 09.12.16
Повідомлень: 10948

2011-02-21 03:20  
fooCDtect
Українські народні пісні. Частина 1 «Засвистали козаченьки» (2004)

Українські народні пісні. Частина 2 «Чорнії брови, карії очі» (2004)

Grand Collection. Іван Козловський. Частина 1 (2006)


civ 
VIP


З нами з: 16.02.11
Востаннє: 08.12.16
Повідомлень: 429

2011-02-21 18:18  
Так, я вже сам перевірив.
Але треба враховувати, що це - відновлені записи з магнітних плівок чи платівок.

ssTAss 
Модератор музики


З нами з: 05.07.08
Востаннє: 09.12.16
Повідомлень: 10948

2011-02-21 23:54  
civ написано:
відновлені записи з магнітних плівок чи платівок

погоджуюсь
але порядні фірми роблять реставрацію звуку, а не просто записують мр3 файли і видають їх за сдда

vasylenkorp 
Новенький


З нами з: 06.01.12
Востаннє: 06.03.16
Повідомлень: 1

2012-01-06 04:03  
бомба

Додано через 43 секунди:

а колядки козловського є?

civ 
VIP


З нами з: 16.02.11
Востаннє: 08.12.16
Повідомлень: 429

2012-01-06 15:22  
Ні, немає. Про колядки я взагалі не чув.
На рутрекері є більше Козловського, але на тих альбомах українські пісні дублюються. І ще є кілька опер. І є російські романси. Це все.

kipchak 
Частий відвідувач


З нами з: 19.05.09
Востаннє: 03.12.16
Повідомлень: 31

2012-01-11 20:14  
Альбом Козловського із колядками називається «Колядки: українські і російські»
civ 
VIP


З нами з: 16.02.11
Востаннє: 08.12.16
Повідомлень: 429

2012-01-11 20:46  
Не зустрічав.

Додано через 7 хвилин 27 секунд:

О! Знайшов.
Це москальський диск: "Колядки украінскіє і русскіє народниє пєсні (коллєкционноє ізданіє саратовской єпархіі)". Тому у нас його ніде не знайдеш.

kipchak 
Частий відвідувач


З нами з: 19.05.09
Востаннє: 03.12.16
Повідомлень: 31

2012-01-12 13:47  
Є аудіофайли колядок у його виконанні в українській вікіпедії в статтях "Список українських колядок і щедрівок" та окремо в "Нова радість стала" й "Iрод цар за Христом ганявся".

А той альбом я завантажив у lossless'і. Добре хоч вони випустили, раз наші гальмують.

civ 
VIP


З нами з: 16.02.11
Востаннє: 08.12.16
Повідомлень: 429

2012-01-12 19:57  
Не думаю, що це наші гальмують. Скоріше, всі записи з голосом Козловського є тільки у Москві.
medroid 
Свій


З нами з: 06.12.08
Востаннє: 03.12.16
Повідомлень: 77

2012-03-08 05:53  
.. в МР3 існує така версія?...
VictoriaRegina 
Свій


З нами з: 25.02.10
Востаннє: 05.08.15
Повідомлень: 121

2012-03-13 22:45  
Щойно осягнув всю красу українського оперного співу. Хочу закинути на Ipod, а mp3 нема
67maximov 
Частий відвідувач


З нами з: 06.10.10
Востаннє: 02.12.16
Повідомлень: 26

2012-10-04 14:41  
Не зрозуміло, навіщо було сюди додавати диск Grand Collection 2006 якщо він повністю повторює "Частина 1 «Засвистали козаченьки» (2004)"
waldi-hurtom 
VIP


З нами з: 07.10.12
Востаннє: 08.12.16
Повідомлень: 613

2012-11-23 14:38  
краще було використовувати cue окремими файлами, так зручніше. мій безкоштовний total audio converter вбудованого не розуміє. та й, взагалі, навіщо лосліс, тим більше для вінілового ріпу? є mp3, що читають усі програвачи, навіщо стьобатись? лосліс для студійної роботи, людське вухо різниці не чує навіть на суперякісній апаратурі. і не лише моє, запитував у кількох професійних музикантів. ви б ще старий вініл у 5.1 переробляли! тим не менш, за запис щиро дякую!
civ 
VIP


З нами з: 16.02.11
Востаннє: 08.12.16
Повідомлень: 429

2012-11-23 21:19  
Лослес тому, що це ріп з компакт диска! Ну було воно на СД, а не мп3. Далі вже кому потрібно, той і сконвертує в мп3 чи ще у щось.
shevis 
Новенький


З нами з: 10.10.11
Востаннє: 08.06.14
Повідомлень: 4

2014-01-07 16:06  
Vakula_S 
Новенький


З нами з: 16.03.10
Востаннє: 08.09.16
Повідомлень: 16

2015-02-24 21:27  
Автор, чому без сue?
civ 
VIP


З нами з: 16.02.11
Востаннє: 08.12.16
Повідомлень: 429

2015-02-24 21:28  
Всі cue вбудовані.
Ваш часовий пояс: GMT + 2 Години

Нова тема   Відповісти