Завантажити та скачати торренти українською


VA - Володимир Івасюк. Камерно-інструментальна музика (2009) [FLAC] | Instrumental

Нові коментарі

Нова тема   Відповісти
Автор Повідомлення
civ 
VIP


З нами з: 16.02.11
Востаннє: 07.12.16
Повідомлень: 429

2011-02-18 20:01  
VA - Володимир Івасюк. Камерно-інструментальна музика (2009) [FLAC] | Instrumental



Стиль: Classic, Instrumental
Країна, місто: Україна, Чернівці
Виконавці:
Камерний оркестр Чернівецької філармонії
Ярослав Колотило
Ігор Кадюк
Павло Чеботов
Людмила Шапко
Олена Чеботова

Композитор - Володимир Івасюк
Видавець: Ukrainian Records
Композиції:

    1. Сюїта-варіації для камерного оркестру (Камерний оркестр Чернівецької філармонії) [17:11]
    2. Варіації для фортепіано на тему старовинної буковинської пісні «Сухая верба» (Ярослав Колотило) [6:32]
    Чотири мініатюри для фортепіано (Ярослав Колотило):
    3. Осіння картинка [0:58]
    4. Маленька токата [0:40]
    5. П’єса №3к [1:26]
    6. Marciale marcatissimo [0:52]
    7. Імпровізація-скерцандо для віолончелі та фортепіано (Ярослав Колотило, Ігор Кадюк) [3:04]
    8. Мелодія (Павло Чеботов, Людмила Шапко, Олена Чеботова) [3:47]
CUE
REM GENRE Instrumental
REM DATE 2009
REM DISCID 62082D08
PERFORMER "Various"
TITLE "Володимир Івасюк. Камерно-інструментальна музика"
REM REPLAYGAIN_ALBUM_GAIN -7.78 dB
REM REPLAYGAIN_ALBUM_PEAK 1.000000
FILE "Various - Володимир Івасюк. Камерно-інструментальна музика.wav" WAVE
TRACK 01 AUDIO
TITLE "Сюїта-варіації для камерного оркестру"
PERFORMER "Камерний оркестр Чернівецької філармонії"
REM REPLAYGAIN_TRACK_GAIN -8.22 dB
REM REPLAYGAIN_TRACK_PEAK 0.999512
INDEX 01 00:00:00
TRACK 02 AUDIO
TITLE "Варіації для фортепіано на тему старовинної буковинської пісні «Сухая верба»"
PERFORMER "Ярослав Колотило"
REM REPLAYGAIN_TRACK_GAIN -5.33 dB
REM REPLAYGAIN_TRACK_PEAK 0.991638
INDEX 01 17:13:40
TRACK 03 AUDIO
TITLE "Осіння картинка"
PERFORMER "Ярослав Колотило"
REM REPLAYGAIN_TRACK_GAIN -0.88 dB
REM REPLAYGAIN_TRACK_PEAK 0.700867
INDEX 01 23:48:28
TRACK 04 AUDIO
TITLE "Маленька токата"
PERFORMER "Ярослав Колотило"
REM REPLAYGAIN_TRACK_GAIN -6.74 dB
REM REPLAYGAIN_TRACK_PEAK 0.987579
INDEX 01 24:48:43
TRACK 05 AUDIO
TITLE "П’єса №3к"
PERFORMER "Ярослав Колотило"
REM REPLAYGAIN_TRACK_GAIN +1.13 dB
REM REPLAYGAIN_TRACK_PEAK 0.704163
INDEX 01 25:31:63
TRACK 06 AUDIO
TITLE "Marciale marcatissimo"
PERFORMER "Ярослав Колотило"
REM REPLAYGAIN_TRACK_GAIN -5.62 dB
REM REPLAYGAIN_TRACK_PEAK 0.704865
INDEX 01 27:00:60
TRACK 07 AUDIO
TITLE "Імпровізація-скерцандо для віолончелі та фортепіано"
PERFORMER "Ярослав Колотило, Ігор Кадюк"
REM REPLAYGAIN_TRACK_GAIN -0.78 dB
REM REPLAYGAIN_TRACK_PEAK 0.988434
INDEX 01 27:55:72
TRACK 08 AUDIO
TITLE "Мелодія"
PERFORMER "Павло Чеботов, Людмила Шапко, Олена Чеботова"
REM REPLAYGAIN_TRACK_GAIN -9.92 dB
REM REPLAYGAIN_TRACK_PEAK 1.000000
INDEX 01 31:04:40
Тривалість: 00:34:53
Мова: без слів (instrumental)
Аудіо-кодек: FLAC
Бітрейт: 602 кб/с
Джерело: власний ріп (тип ріпу - один трек; CUE та обкладинки вбудовані у файл)
Додаткова інформація:
про диск
Запис здійснено в залі Чернівецької облфілармонії. Звукорежисер - Олег Ступка.
Для обкладинки використано репродукцію картини Івана Марчука «Розірвана мелодія».

Трек №1
Керівник - Заслужений артист України Павло Чеботов
Соло альта - Михайло Павчук
Соло скрипки - Юрій Плаксін
Соло Віолончелі - Лауреат міжнародного конкурсу Микола Головін

Трек №2-6
Соліст Чернівецької філармонії Ярослав Колотило

Трек №7
Віолончель - Заслужений артист України Ігор Кадюк
Фортепіано - соліст Чернівецької філармонії Ярослав Колотило
Редакція партії віолончелі - Д. Шмондяк

Трек №8
1 скрипка - Заслужений артист України Павло Чеботов
2 скрипка - Заслужена артистка України Людмила Шапко
Фортепіано - Дипломант міжнародного конкурсу Олена Чеботова
Перекладення для тріо - Павло Чеботов


Якщо Ви справді бажаєте підтримати українське - після прослуховування, якщо музика вам сподобалась, придбайте ліцензійний диск. Підтримаймо вітчизняних виконавців!


Срібний реліз (на рейтинг впливає 50% завантаженого)
 Трекер:    Зареєстрований   

Завантажити / скачати українську музику



відео для новачків



 Зареєстрований:   2011-02-18 20:01
 Розмір:   150 MB 
 Оцінка музики:   10/10 (Голосів: 11)
 Various - Володимир Івасюк. Камерно-інструментальна музика (2009) [FLAC] | Instrumental
   
ssTAss 
Модератор музики


З нами з: 05.07.08
Востаннє: 08.12.16
Повідомлень: 10947

2011-02-18 23:55  
civ написано:
Видавець:

заповніть
civ написано:
Мова:

якщо немає, то пишемо - без слів (instrumental)

ssTAss 
Модератор музики


З нами з: 05.07.08
Востаннє: 08.12.16
Повідомлень: 10947

2011-02-19 15:11  
хмм, нічого не розумію
файл завантаження
civ написано:
Various - Володимир Івасюк. Камерно-інструментальна музика (2009).flac

а завантажився
Цитата:
2009 Камерно-інструментальна музика

без будь-якого розширення
розумію, що можу сам змінити (просто в назві поставити .flac), але тоді на роздачі не буду

P.S. аналогічна ситуація бачу і з Гришком

civ 
VIP


З нами з: 16.02.11
Востаннє: 07.12.16
Повідомлень: 429

2011-02-19 19:03  
ssTAss
Хм... Я тебе не розумію. Ти поставив на завантаження і замість файлу "Various - Володимир Івасюк. Камерно-інструментальна музика (2009).flac" отримав файл з іменем "2009 Камерно-інструментальна музика"?
Якийсь дивний глюк. А хтось ще мав подібну проблему? І що там із Гришком?

Skiff 
музика
музика


З нами з: 12.11.07
Востаннє: 08.12.16
Повідомлень: 3051

2011-02-19 19:12  
ssTAss
Вочевидь глюк в тебе.

ssTAss 
Модератор музики


З нами з: 05.07.08
Востаннє: 08.12.16
Повідомлень: 10947

2011-02-19 20:54  
Skiff написано:
Вочевидь глюк в тебе.

дякую, вже розібрався
глюк)) виправив (в себе)
civ написано:
І що там із Гришком?

зараз там напишу (не про глюк)

Додано через 1 годину 5 хвилин 55 секунд:

з "Івасюком" теж саме, що і з "Гришком"
fooCDtect
от і купуй після того диски Sad (1)
civ-е, скиньте скани, будь-ласка

civ 
VIP


З нами з: 16.02.11
Востаннє: 07.12.16
Повідомлень: 429

2011-02-20 10:30  
Додав скани.
Lev 
VIP


З нами з: 14.10.09
Востаннє: 05.12.16
Повідомлень: 1819

2011-02-20 15:00  
класна роздача
Ваш часовий пояс: GMT + 2 Години

Нова тема   Відповісти