Завантажити та скачати торренти українською


Тельнюк: Сестри - Live краще (2009) [FLAC] | Alternative/Art-Rock

Нові коментарі

Нова тема   Відповісти
Автор Повідомлення
civ 
VIP


З нами з: 16.02.11
Востаннє: 02.12.16
Повідомлень: 428

2011-02-17 23:19  
Тельнюк: Сестри - Live краще (2009) [FLAC] | Alternative/Art-Rock



Стиль: Alternative, Art-Rock
Країна, місто: Україна, Київ
Сайти: Офіційний сайт
Видавець: Comp music
Виконавці: Галина та Леся Тельнюк

Пісні:
    1. Гроза
    2. Кленовий листочок
    3. Досадонька
    4. І тоді…
    5. Хоровід
    6. Минає час
    7. Тюльпани
    8. Жар-птиці
    9. Кольоровий літак
    10. Дівчатко-кленчатко
    11. Я знаю…
    12. Голос Твій…
    13. Ластівка
    14. Назавжди
    15. Жовта кульбаба. Harlem
    16. Вечірник
    17. Небо

Тривалість: 01:17:52
Мова: українська
Аудіо-кодек: FLAC
Бітрейт: 905 кб/с
Джерело: власний ріп
Тип ріпу: Один трек; CUE, лог та обкладинки вбудовані у файл

Додаткова інформація:
Можливо, Ви вже бували на концерті сестер Тельнюк – тоді, певно, знаєте, наскільки це глибоке, потужне дійство: за силою дії на слухача мало хто може з ними зрівнятися. І справа тут не лише у якості самих пісень – хоча, знову ж таки, і музика, і тексти від самого початку виокремили для цього проекту цілковито осібне місце на нашій сцені (далеке від загальної течії. Хоча, гадаю, якраз такій творчості вартувало б бути центром, серцем мейнстриму – у доброму розумінні цього слова). Стосовно саме live-звучання – неможливо не відзначити перфекціонізм у ставленні музикантів гурту до своєї справи. Послухайте альбом: Ви не знайдете помилок, недоречностей, які, зазвичай, мають місце у будь-якому виступі. Часто якісь недоліки нівелюються просто за рахунок живого драйву – зрештою, це цілком нормально – але "Тельнюк: Сестри" буквально кожен свій концерт грають, наче востаннє, наче іншої можливості змінити щось на краще може вже й не бути. І що це, як не – справжня, невдавана повага до свого слухача? Та навіть якщо лишити осторонь якість виконання, ці пісні, ця музика є гранично чесними у своїй глибині та красі – і вже тому не можуть не хвилювати. Вони творять тонкі вітри – здатні змінювати не лише свідомість, а й саму дійсність. Адже твій світ є таким, яким є ти – і що, коли ти раптом відкриваєш всередині себе гармонію руху? А саме на цих шляхах, мені здається, і живуть вітри сестер Тельнюк...

Антон Йожик Лейба
CUE
REM GENRE New Age
REM DATE 2009
REM DISCID 10123F11
PERFORMER "Тельнюк: Сестри"
TITLE "Live краще"
REM REPLAYGAIN_ALBUM_GAIN -8.52 dB
REM REPLAYGAIN_ALBUM_PEAK 0.977692
FILE "Тельнюк сестри - Live краще.wav" WAVE
TRACK 01 AUDIO
TITLE "Гроза"
PERFORMER "Тельнюк: Сестри"
REM REPLAYGAIN_TRACK_GAIN -8.60 dB
REM REPLAYGAIN_TRACK_PEAK 0.977661
INDEX 01 00:00:00
TRACK 02 AUDIO
TITLE "Кленовий листочок"
PERFORMER "Тельнюк: Сестри"
REM REPLAYGAIN_TRACK_GAIN -9.23 dB
REM REPLAYGAIN_TRACK_PEAK 0.977570
INDEX 01 04:49:03
TRACK 03 AUDIO
TITLE "Досадонька"
PERFORMER "Тельнюк: Сестри"
REM REPLAYGAIN_TRACK_GAIN -7.70 dB
REM REPLAYGAIN_TRACK_PEAK 0.977600
INDEX 01 09:17:69
TRACK 04 AUDIO
TITLE "І тоді…"
PERFORMER "Тельнюк: Сестри"
REM REPLAYGAIN_TRACK_GAIN -6.34 dB
REM REPLAYGAIN_TRACK_PEAK 0.977600
INDEX 01 13:16:30
TRACK 05 AUDIO
TITLE "Хоровід"
PERFORMER "Тельнюк: Сестри"
REM REPLAYGAIN_TRACK_GAIN -8.72 dB
REM REPLAYGAIN_TRACK_PEAK 0.977661
INDEX 01 17:13:34
TRACK 06 AUDIO
TITLE "Минає час"
PERFORMER "Тельнюк: Сестри"
REM REPLAYGAIN_TRACK_GAIN -8.32 dB
REM REPLAYGAIN_TRACK_PEAK 0.977631
INDEX 01 22:45:08
TRACK 07 AUDIO
TITLE "Тюльпани"
PERFORMER "Тельнюк: Сестри"
REM REPLAYGAIN_TRACK_GAIN -10.22 dB
REM REPLAYGAIN_TRACK_PEAK 0.977661
INDEX 01 27:17:42
TRACK 08 AUDIO
TITLE "Жар-птиці"
PERFORMER "Тельнюк: Сестри"
REM REPLAYGAIN_TRACK_GAIN -5.71 dB
REM REPLAYGAIN_TRACK_PEAK 0.977539
INDEX 01 30:53:72
TRACK 09 AUDIO
TITLE "Кольоровий літак"
PERFORMER "Тельнюк: Сестри"
REM REPLAYGAIN_TRACK_GAIN -7.46 dB
REM REPLAYGAIN_TRACK_PEAK 0.977661
INDEX 01 36:58:25
TRACK 10 AUDIO
TITLE "Дівчатко-кленчатко"
PERFORMER "Тельнюк: Сестри"
REM REPLAYGAIN_TRACK_GAIN -9.15 dB
REM REPLAYGAIN_TRACK_PEAK 0.977570
INDEX 01 43:09:21
TRACK 11 AUDIO
TITLE "Я знаю…"
PERFORMER "Тельнюк: Сестри"
REM REPLAYGAIN_TRACK_GAIN -6.13 dB
REM REPLAYGAIN_TRACK_PEAK 0.977570
INDEX 01 47:20:12
TRACK 12 AUDIO
TITLE "Голос Твій"
PERFORMER "Тельнюк: Сестри"
REM REPLAYGAIN_TRACK_GAIN -8.87 dB
REM REPLAYGAIN_TRACK_PEAK 0.977631
INDEX 01 53:05:19
TRACK 13 AUDIO
TITLE "Ластівка"
PERFORMER "Тельнюк: Сестри"
REM REPLAYGAIN_TRACK_GAIN -8.51 dB
REM REPLAYGAIN_TRACK_PEAK 0.977692
INDEX 01 57:54:58
TRACK 14 AUDIO
TITLE "Назавжди"
PERFORMER "Тельнюк: Сестри"
REM REPLAYGAIN_TRACK_GAIN -4.44 dB
REM REPLAYGAIN_TRACK_PEAK 0.977325
INDEX 01 61:10:10
TRACK 15 AUDIO
TITLE "Жовта кульбаба. Harlem"
PERFORMER "Тельнюк: Сестри"
REM REPLAYGAIN_TRACK_GAIN -8.47 dB
REM REPLAYGAIN_TRACK_PEAK 0.977631
INDEX 01 65:14:67
TRACK 16 AUDIO
TITLE "Вечірник"
PERFORMER "Тельнюк: Сестри"
REM REPLAYGAIN_TRACK_GAIN -8.97 dB
REM REPLAYGAIN_TRACK_PEAK 0.977661
INDEX 01 69:27:61
TRACK 17 AUDIO
TITLE "Небо"
PERFORMER "Тельнюк: Сестри"
REM REPLAYGAIN_TRACK_GAIN -8.60 dB
REM REPLAYGAIN_TRACK_PEAK 0.977600
INDEX 01 74:28:20
Звіт EAC
Exact Audio Copy V0.99 prebeta 5 from 4. May 2009

Звіт EAC про видобування, котре виконане 30. листопада 2009, 12:38

Тельнюк: сестри / Live краще

Дисковод: Optiarc DVD RW AD-7200A Adapter: 0 ID: 0

Режим читання : Точний
Використати точний потік : Так
Вимкнути аудіо кеш : Ні
Застосувати мітки C2 : Так

Корекція зміщення при читанні : 0
Екстрачитання областей Lead-in і Lead-out : Ні
Заповнення пропущених семплів тишею : Так
Видалення блоків з тишею на початку і кінці : Ні
При вирахуванні CRC використовувались нульові семпли : Ні
Використаний інтерфейс : 'Рідний' Win32-інтерфейс для Win NT/2000

Застосований вихідний формат : Внутрішні WAV-операції
Формат семпла : 44.100 Гц; 16 біт; стерео

TOC видобутого CD

Трек | Старт | Довжина | Початковий сектор | Кінцевий сектор
------------------------------------------------------------------
1 | 0:00.00 | 4:49.03 | 0 | 21677
2 | 4:49.03 | 4:28.66 | 21678 | 41843
3 | 9:17.69 | 3:58.36 | 41844 | 59729
4 | 13:16.30 | 3:57.04 | 59730 | 77508
5 | 17:13.34 | 5:31.49 | 77509 | 102382
6 | 22:45.08 | 4:32.34 | 102383 | 122816
7 | 27:17.42 | 3:36.30 | 122817 | 139046
8 | 30:53.72 | 6:04.28 | 139047 | 166374
9 | 36:58.25 | 6:10.71 | 166375 | 194195
10 | 43:09.21 | 4:10.66 | 194196 | 213011
11 | 47:20.12 | 5:45.07 | 213012 | 238893
12 | 53:05.19 | 4:49.39 | 238894 | 260607
13 | 57:54.58 | 3:15.27 | 260608 | 275259
14 | 61:10.10 | 4:04.57 | 275260 | 293616
15 | 65:14.67 | 4:12.69 | 293617 | 312585
16 | 69:27.61 | 5:00.34 | 312586 | 335119
17 | 74:28.20 | 3:23.35 | 335120 | 350379

Статус діапазону і помилки

Обраний діапазон

Ім'я файлу D:\Music\Тельнюк сестри - Тельнюк live краще.wav

Піковий рівень 97.7 %
Якість діапазону 100.0 %
CRC копії A93DD091
Копіювання... OK

Помилки не траплялися

Кінець звіту
Якщо Ви справді бажаєте підтримати українське - після прослуховування, якщо музика вам сподобалась, придбайте ліцензійний диск. Підтримаймо вітчизняних виконавців!


Срібний реліз (на рейтинг впливає 50% завантаженого)
 Трекер:    Зареєстрований   

Завантажити / скачати українську музику



відео для новачків



 Зареєстрований:   2011-02-17 23:19
 Розмір:   504 MB 
 Оцінка музики:   10/10 (Голосів: 5)
 Тельнюк: Сестри - Live краще (2009) [FLAC] | Alternative/Art-Rock
   
ssTAss 
Модератор музики


З нами з: 05.07.08
Востаннє: 02.12.16
Повідомлень: 10928

2012-11-04 18:52  
Ваш часовий пояс: GMT + 2 Години

Нова тема   Відповісти