Завантажити та скачати торренти українською


Юрій Кипоренко-Доманський - Оперні фрагменти. Українська музика (2CD) (2009) [FLAC] | Opera

Нові коментарі

Нова тема   Відповісти
Останній раз роздавалося ssTAss (2016-11-27)
Автор Повідомлення
ssTAss 
Модератор музики


З нами з: 05.07.08
Востаннє: 07.12.16
Повідомлень: 10947

2011-02-16 02:34  
Юрій Кипоренко-Доманський - Оперні фрагменти. Українська музика (2CD) (2009) [FLAC] | Opera



Стиль: Opera, Classic
Країна, місто: Україна, Харків - Київ
Видавець: Національна радіокомпанія України
Виконавці:
Юрій Кипоренко-Доманський


Юрій Степанович Кипоренко-Доманський (24 березня 1888, Харків — 6 серпня 1955, Київ) — український, радянський оперний спiвак. Унікальний голос Юрія Степановича характеризували як «героїчний тенор». Впродовж сорока трьох рокiв активної театральної дiяльности, спiвпрацював з такими знаменитостями як Марія Заньковецька, Федір Шаляпін, грав на однiй сценi з усiма провiдними дiячами тогочасного українського оперного мистецтва.

Народився 12 (24 березня) 1888 року у Харковi в багатодiтнiй родинi шевця (з 12-ти дiтей половина — померли). Працював разом з батьком у майстернi.
У 1906 роцi пристає до мандрівної трупи О.Суходольського, спiвцем хору.
З цього моменту почалась захоплююча й важка робота в мандрiвних театральних колективах, якi не мали власного примiщення i працювали, гастролюючи iмперiєю. Тут Юрiй Степанович знайшов друзiв, зустрiв свою дружину, пiзнав всi куточки країни, набув досвiд та «отримав щеплення» вiд сухого академiзму, на який часто страждали забезпеченi всiма благами актори респектабельних театрiв.
На запрошення С. Зіміна, у 1912 роцi Кипоренко-Доманський залишився (по завершенню гастролей трупи Д. Гайдамаки) у Москвi та пiдписав контракт з приватним оперним театром московського антрепренера. Спiвпраця тривала до 1917 року. Тут спiвак долучив до свого репертуару партії з творiв класичних європейських та російських композиторiв, як-от: Верді, Пуччіні, Ґюно, Ваґнер, Мейєрбер, Чайковський, Римський-Корсаков, Мусоргський та iн.
До 1916 року бере уроки у проф. Лапинського, безкоштовно, на запрошення останнього.
Деякий час пiсля жовтневого перевороту Ю. Кипоренко-Доманський працює в нацiоналiзованому театрi пiд орудою Ф. Комісаржевського. 1919 року керiвник театру емiгрував, за тим послiдували два важкi сезони в «глибинцi» — Саратовi та Ростовi-на Дону. Пiсля них, повернення в Харкiв було справдi жаданим.
На Українi починається надзвичайно насичена робота в столицi, Одесi, Києві (1922—1941). Це й прем'єри, й постiйнi запрошення на гастролi. Лише три сезони пан Юрiй проводить поза трикутником Харкiв-Одеса-Київ: один в Сибiру, один в Грузії та останнiй на навчаннi в Італії.
Пiсля нападу з боку Нiмеччини та її союзникiв на Радянський Союз, Кипоренко-Доманський та iншi актори командированi до Тбiлiсi, де виступають як в оперi, так i на симфонiчних концертах (концерти в фонд фронту та на користь родин загиблих воякiв).

Могила Юрія Кипоренко-Доманського
1942 року «українська група» у грузинськiй столицi вшанувала пам'ять композитора Миколи Лисенка (100 рокiв вiд дня народження). В концертi брали участь митцi обох народiв.
Весною 1944 року пан Юрiй з iншими артистами повернувся в Київ.
Брав участь у концертах в розташуваннях бойових частин.
Завершив активну роботу в Київський оперi весною 1949 року прем'єрною постановкою Івана Сусаніна.
Працював у Київській консерваторії, перiодично мав виступи на збiрних та сольних концертах, епiзодичнi вистави на сценах Києва, Харкова, Львова, Одеси, Свердловська та iн.
Помер у 67-лiтньому вiцi, 6 серпня 1955 року. Похований в Києві на Байковому кладовищі.
Критики порiвнювали голос Кипоренко-Доманського з голосами А. Мазіні, Ф. Таманьо, І. Єршова. Його репертуар складали 116 партій. Деякі його записи включено в антологію «Золоті голоси України» (1970).
Дивним чином, творчiсть Кипоренко-Доманського не пропагувалася в СРСР. Вiн не мав достатньо (як для артиста такого рiвня) записiв та радiовиступiв, створені 1945-го року в Нiмеччинi грамзаписи так i не були перевидані
Пісні:
    Диск 1 • Оперні фрагменти


    01 - Джузеппе Верді. Романс Радамеса з 1 д. опери «Аіда»
    02 - Джузеппе Верді. Фінальна сцена (в підземеллі) з 2 карт. 4 д. опери «Аіда»
    — Аіда — Лілія Лобанова (сопрано), Амнеріс — Лариса Руденко (меццо-сопрано)
    03 - Жорж Бізе. Фінальная сцена опери «Кармен»
    — Кармен — Лариса Руденко (меццо-сопрано)
    04 - Фроманталь Галеві. Арія Елеазара з 4 д. опери «Дочка кардинала» («Жидівка»)
    05 - Джузеппе Верді. Сцена і дует Дездемони і Отелло з 1 д. опери «Отелло»
    — Дездемона — Зоя Гайдай (сопрано)
    06 - Джузеппе Верді. Речитатив і арія Отелло з 2 д. оп. «Отелло»
    07 - Джузеппе Верді. Речитатив і арія Отелло з 2 д. оп. «Отелло» alternate track
    08 - Джузеппе Верді. Монолог Отелло з 3 д. оп. «Отелло»
    09 - Петро Чайковський. Арія Германа з 7 карт. опери «Пікова дама»
    10 - Микола Лисенко. Арія Андрія з оп. «Тарас Бульба»
    11 - Микола Римський-Корсаков. Пісня Вакули з оп. «Ніч перед Різдвом»

    — Хор (2, 3) і Оркестр Київського державного театру опери та балету ім. Т. Шевченко, диригенти Володимир Пірадов (1, 2, 9), Олександр Клімов (3, 4), Яків Карасик (5, 6)
    — Зара Деслер, ф-п. (7, 8, 10, 11)

    Тривалість: 00:57:05
    Мова: українська (1–3, 5–8, 10, 11), російська (4, 9)
    Бітрейт: 561 кб/с
    log
    Exact Audio Copy V0.99 prebeta 4 from 23. January 2008

    EAC extraction logfile from 10. July 2009, 21:56

    Yu. Kyporenko-Domanskyi / Disc 1 - Opera Fragments

    Used drive : PLEXTOR CD-R PX-W1210S Adapter: 6 ID: 4

    Read mode : Secure
    Utilize accurate stream : Yes
    Defeat audio cache : Yes
    Make use of C2 pointers : No

    Read offset correction : 98
    Overread into Lead-In and Lead-Out : No
    Fill up missing offset samples with silence : Yes
    Delete leading and trailing silent blocks : No
    Null samples used in CRC calculations : Yes
    Used interface : Installed external ASPI interface

    Used output format : User Defined Encoder
    Selected bitrate : 1024 kBit/s
    Quality : High
    Add ID3 tag : No
    Command line compressor : C:\Program Files\Exact Audio Copy\Flac\flac.exe
    Additional command line options : -8 -V -T "ARTIST=%a" -T "TITLE=%t" -T "ALBUM=%g" -T "DATE=%y" -T "TRACKNUMBER=%n" -T "GENRE=%m" -T "COMMENT=EAC FLAC -8" %s

    TOC of the extracted CD

    Track | Start | Length | Start sector | End sector
    ---------------------------------------------------------
    1 | 0:00.00 | 4:20.00 | 0 | 19499
    2 | 4:20.00 | 9:48.09 | 19500 | 63608
    3 | 14:08.09 | 8:21.62 | 63609 | 101245
    4 | 22:29.71 | 8:06.59 | 101246 | 137754
    5 | 30:36.55 | 10:42.49 | 137755 | 185953
    6 | 41:19.29 | 2:36.46 | 185954 | 197699
    7 | 43:56.00 | 2:22.00 | 197700 | 208349
    8 | 46:18.00 | 3:54.45 | 208350 | 225944
    9 | 50:12.45 | 1:57.61 | 225945 | 234780
    10 | 52:10.31 | 2:33.70 | 234781 | 246325
    11 | 54:44.26 | 2:20.59 | 246326 | 256884

    Range status and errors

    Selected range

    Filename E:\_FOR CONVERTED\Yu. Kyporenko-Domanskyi\Disc 1 - Opera Fragments.wav

    Peak level 98.0 %
    Range quality 100.0 %
    Copy CRC B1925493
    Copy OK

    No errors occurred

    End of status report
    Диск 2 • Українська музика


    01 - Микола Лисенко. «Радуйся, ниво неполитая», кантата на текст Тараса Шевченка. 4 частина «Коли ж то, Господи, святая на землю правда прилетить…»
    02 - Микола Лисенко. «У мене був коханий рідний край». Текст Генріха Гейне, переклад на українську Лесі Українки
    03 - Григорій Алчевський. «Чого мені тяжко». Текст Тараса Шевченка
    04 - Людмила Александрова. «Повій, вітре, на Вкраїну». Текст Степана Руданського
    05 - Українська народна пісня, обр. Миколи Лисенка. «Ой, зійди, зійди, ясен місяцю»
    06 - Українська народна пісня, обр. Миколи Лисенка. «Дівчино моя»
    07 - Українська народна пісня, обр. Миколи Лисенка. «Ой, не шуми, луже»
    08 - Українська народна пісня, обр. Миколи Лисенка. «Там, де Ятрань»
    09 - Українська народна пісня, обр. Бориса Лятошинського. «Ой, не спиться й не лежиться»
    10 - Українська народна пісня, обр. Бориса Лятошинського. «Ой, коню мій, коню»
    11 - Українська народна пісня, обр. Бориса Лятошинського. «Якби мені не тиночки»
    Bonus/alternate tracks:
    12 - Українська народна пісня, обр. Миколи Лисенка. «Ой, зійди, зійди, ясен місяцю»
    13 - Українська народна пісня, обр. Миколи Лисенка. «Дівчино моя»

    — Симфонічний оркестр Українського радіо, диригент Климентій Доминчен (1).
    — Зара Деслер, ф-п. (2, 3)
    — Оркестр народних інструментів Українського радіо, диригент Микола Хиврич (4–13).

    Тривалість: 00:34:17
    Мова: українська
    Бітрейт: 589 кб/с
    log
    Exact Audio Copy V0.99 prebeta 4 from 23. January 2008

    EAC extraction logfile from 10. July 2009, 22:05

    Yu. Kyporenko-Domanskyi / Disc 2 - Ukrainian Music

    Used drive : PLEXTOR CD-R PX-W1210S Adapter: 6 ID: 4

    Read mode : Secure
    Utilize accurate stream : Yes
    Defeat audio cache : Yes
    Make use of C2 pointers : No

    Read offset correction : 98
    Overread into Lead-In and Lead-Out : No
    Fill up missing offset samples with silence : Yes
    Delete leading and trailing silent blocks : No
    Null samples used in CRC calculations : Yes
    Used interface : Installed external ASPI interface

    Used output format : User Defined Encoder
    Selected bitrate : 1024 kBit/s
    Quality : High
    Add ID3 tag : No
    Command line compressor : C:\Program Files\Exact Audio Copy\Flac\flac.exe
    Additional command line options : -8 -V -T "ARTIST=%a" -T "TITLE=%t" -T "ALBUM=%g" -T "DATE=%y" -T "TRACKNUMBER=%n" -T "GENRE=%m" -T "COMMENT=EAC FLAC -8" %s

    TOC of the extracted CD

    Track | Start | Length | Start sector | End sector
    ---------------------------------------------------------
    1 | 0:00.00 | 2:09.11 | 0 | 9685
    2 | 2:09.11 | 2:05.37 | 9686 | 19097
    3 | 4:14.48 | 2:00.32 | 19098 | 28129
    4 | 6:15.05 | 4:38.26 | 28130 | 49005
    5 | 10:53.31 | 3:25.15 | 49006 | 64395
    6 | 14:18.46 | 1:22.41 | 64396 | 70586
    7 | 15:41.12 | 3:56.14 | 70587 | 88300
    8 | 19:37.26 | 3:05.65 | 88301 | 102240
    9 | 22:43.16 | 2:07.11 | 102241 | 111776
    10 | 24:50.27 | 2:26.61 | 111777 | 122787
    11 | 27:17.13 | 2:39.24 | 122788 | 134736
    12 | 29:56.37 | 3:01.59 | 134737 | 148370
    13 | 32:58.21 | 1:19.09 | 148371 | 154304

    Range status and errors

    Selected range

    Filename E:\_FOR CONVERTED\Yu. Kyporenko-Domanskyi\Disc 2 - Ukrainian Music.wav

    Peak level 98.1 %
    Range quality 100.0 %
    Copy CRC 77F8DA7D
    Copy OK

    No errors occurred

    End of status report


Тривалість: 01:31:22
Мова: українська, російська
Аудіо-кодек: FLAC
Бітрейт: 561-589 кб/с
Джерело: rutracker (AVV_UA)
Додаткова інформація:
На двох дисках «д.с.п.» зібрані всі студійні записи співака, які збереглися в Києві. Вони були зроблені на початку 1950-х рр.: оперні фрагменти у супроводі оркестру Київського театру – в Москві на Всесоюзному радіо, решта – на Українському радіо.


Якщо Ви справді бажаєте підтримати українське - після прослуховування, якщо музика вам сподобалась,
придбайте ліцензійний диск.
Підтримаймо вітчизняних виконавців!


Срібний реліз (на рейтинг впливає 50% завантаженого)
 Трекер:    Зареєстрований   

Завантажити / скачати українську музику



відео для новачків



 Зареєстрований:   2011-02-16 02:34
 Розмір:   374 MB 
 Оцінка музики:   5.5/10 (Голосів: 6)
   
Ваш часовий пояс: GMT + 2 Години

Нова тема   Відповісти