Завантажити та скачати торренти українською


Будинок-монстр / Monster House (2006) Ukr/Eng

Нові коментарі

Нова тема   Відповісти
Автор Повідомлення
Тирік 
VIP


З нами з: 06.04.09
Востаннє: 17.09.13
Повідомлень: 909

2011-02-15 02:26  
Будинок-монстр / Monster House (2006) Ukr/Eng


Альтернативна афішка (для тих кому перший варіант нечитабельний)

Жанр: сімейний, фентезі, мультфільм, детектив
Країна: США



Кіностудія / кінокомпанія: Columbia Pictures
Режисер: Гіл Кінан
Актори: Сем Лернер, Спенсер Лок, Стів Бушемі, Нік Кеннон, Меггі Джиленхаал, Кевін Джеймс, Джейсон Лі, Катерін О'Хара, Кетлін Тернер, Фред Віллард.

Сюжет:
Троє підлітків виявляють, що сусідський будинок через дорогу - насправді монстр, який пожирає все і всіх хто потрапив йому в полон.

Тривалість: 01:30:15
Якість:
Відео:
кодек:
розмір кадру: 720x304
бітрейт: 1599 Kб/с

Аудіо 1:
мова: українська
переклад: багатоголосий закадровий із телеканалу К1
кодек: АC3 5.1
бітрейт: 448 Кбіт/сек

Аудіо 2:
мова: англійська
переклад: оригінал
кодек: АC3 5.1
бітрейт: 448 Кбіт/сек


MediaINFO

Format : AVI
Format/Info : Audio Video Interleave
File size : 1.59 GiB
Duration : 1h 30mn
Overall bit rate : 2 510 Kbps
Writing application : VirtualDubMod 1.5.10.2 (build 2540/release)
Writing library : VirtualDubMod build 2540/release
Video #0
ID : 0
Format : MPEG-4 Visual
Format profile : [email protected]
Format settings, BVOP : Yes
Format settings, QPel : Yes
Format settings, GMC : 3 warppoints
Format settings, Matrix : Default (H.263)
Codec ID :
Codec ID/Hint :
Duration : 1h 30mn
Bit rate : 1 599 Kbps
Width : 720 pixels
Height : 304 pixels
Display aspect ratio : 2.35:1
Frame rate : 23.976 fps
Resolution : 24 bits
Colorimetry : 4:2:0
Scan type : Progressive
Bits/(Pixel*Frame) : 0.305
Stream size : 1.01 GiB (64%)
Writing library : 1.2.1 (UTC 2008-12-04)
Audio #1
ID : 1
Format : AC-3
Format/Info : Audio Coding 3
Codec ID : 2000
Duration : 1h 30mn
Bit rate mode : Constant
Bit rate : 448 Kbps
Channel(s) : 6 channels
Channel positions : Front: L C R, Surround: L R, LFE
Sampling rate : 48.0 KHz
Stream size : 290 MiB (18%)
Alignment : Split accross interleaves
Interleave, duration : 42 ms (1.00 video frame)
Interleave, preload duration : 500 ms
Title : Ukrainian[ukr/uk]
Audio #2
ID : 2
Format : AC-3
Format/Info : Audio Coding 3
Codec ID : 2000
Duration : 1h 30mn
Bit rate mode : Constant
Bit rate : 448 Kbps
Channel(s) : 6 channels
Channel positions : Front: L C R, Surround: L R, LFE
Sampling rate : 48.0 KHz
Stream size : 290 MiB (18%)
Alignment : Split accross interleaves
Interleave, duration : 42 ms (1.00 video frame)
Interleave, preload duration : 500 ms
Title : English[eng/en]

ScreenSHOT









Особлива подяка пану gig_Panas за надану звукову доріжку.

Джерело: &


 Трекер:    Зареєстрований   

Завантажити / скачати мультфільм українською



відео для новачків



 Зареєстрований:   2011-02-15 10:15
 Розмір:   1.59 GB 
 Оцінка мультфільму:   9.9/10 (Голосів: 88)
   
Інші релізи
Аквамарін 
Новенький


З нами з: 15.02.11
Востаннє: 15.02.11
Повідомлень: 1

2011-02-15 23:22  
Всім привіт))))))))))))) дякую за мультик...

[для простого "дякую" є кнопочка "дякую". На перший раз усне попередження ~abodnya]

Nik4779 
Відео Гуртом - підтримка та поширення
Відео Гуртом - підтримка та поширення


З нами з: 17.04.09
Востаннє: 27.11.16
Повідомлень: 158

2011-02-16 08:47  
Дякую за роботу, але в мене на побутовому ДВД-плеері не пішло ((( пише - "кодек не підтримується"...

Хочу зазначити, що 99% фільмів в даному форматі в мене ідуть та й ДВД не з дешевих...

imonko 
Відео Гуртом - фільмокрай
Відео Гуртом - фільмокрай


З нами з: 20.07.08
Востаннє: 31.10.16
Повідомлень: 7309

2011-02-16 11:22  
от мабуть і причина
Тирік написано:
Format settings, QPel : Yes

imonko 
Відео Гуртом - фільмокрай
Відео Гуртом - фільмокрай


З нами з: 20.07.08
Востаннє: 31.10.16
Повідомлень: 7309

2011-02-16 17:57  
почистив, шановні дизайнери невже ви не знаєте в якій темі обговорювати постери? відповідь тут = попередження))
Тирік 
VIP


З нами з: 06.04.09
Востаннє: 17.09.13
Повідомлень: 909

2011-02-16 20:34  
Nik4779, цілком можливо що ваш програвач не підтримує QPel, та я не думав що в когось є такі програвачі, оскільки мій (дешевий як борщ) старенький ТHOMSON DTH109R який я ще в 2005 придбав без проблем відтворює даний мульт.
П.С. трішки інфи про QPel:http://toloka.to/t8447

Nik4779 
Відео Гуртом - підтримка та поширення
Відео Гуртом - підтримка та поширення


З нами з: 17.04.09
Востаннє: 27.11.16
Повідомлень: 158

2011-02-16 21:56  
Тирік написано:

Nik4779, цілком можливо що ваш програвач не підтримує QPel, та я не думав що в когось є такі програвачі, оскільки мій (дешевий як борщ) старенький ТHOMSON DTH109R який я ще в 2005 придбав без проблем відтворює даний мульт.
П.С. трішки інфи про QPel:http://toloka.to/t8447

таки напевно воно - так як в документації до плеєра інформації про це немає..., але відео показує ривками, то напевно проблема саме в QPel (процесор не витримує більшого навантаження...)

я про цей QPel прочитав вперше - як то кажуть "Вік живи - дурнем помреш ))"

Додано через 1 хвилину 22 секунди:

зараз качнув цей мультфільм з HQ-Video, приліплю до нього українську доріжку і в домашню колекцію ))

Muxailo Volosuk 
Новенький


З нами з: 06.05.10
Востаннє: 14.07.14
Повідомлень: 14

2011-05-01 00:32  
Якщо адміністратор цьго мульту має бажання то нехай виправить помилочку у Рядочку
Жанр: "семейний", фентезі, мультфільм, детектив,,,,,,,,, У слові "семейний"

Додано через 4 хвилини 40 секунд:

Nik4779

Можу вам рекомендувати наскільки я швиденько зрозумів перекодувати мультфільм на у програмі VirtualDub F,j; зробити DVD диск у програмі Nero Якщо будуть запитання пишіть в приватні повідомлення!

reminor7 
VIP


З нами з: 15.08.11
Востаннє: 03.12.16
Повідомлень: 292

2012-01-27 00:46  
Моїм малим цей мульт дуже сподобався.
Отже рекомендую.

10/10

missis.luchinets 
Новенький


З нами з: 10.03.14
Востаннє: 05.07.14
Повідомлень: 1

2014-05-26 11:03  
дуже дякую за мульт)))СЛАВА УКРАЇНІ!!!!
Ваш часовий пояс: GMT + 2 Години

Нова тема   Відповісти