Завантажити та скачати торренти українською


Будиночок для равлика (2005)

Нові коментарі

Нова тема   Відповісти
Автор Повідомлення
Тирік 
VIP


З нами з: 06.04.09
Востаннє: 17.09.13
Повідомлень: 909

2011-02-13 21:59  
Будиночок для равлика (2005)


Жанр: анімація
Країна: Україна
Кіностудія / кінокомпанія: Укранімафільм
Режисер: О. Педан
Художник-постановщик: І. Котков
Композитор: О. Спаринський
Озвучили: Ю. Коваленко

Сюжет:
Автор розповідає про нелегке життя равликів коли ті опиняються поза своєю хаткою.

Тривалість: 00:09:24
Якість:
Відео:
кодек:
розмір кадру: 720 x 552
бітрейт: 1 971 Kб/с
Аудіо:
мова: українська
переклад: оригінал
кодек: АС-3 2.0
бітрейт: 224 Кбіт/сек

MediaINFO

Format : AVI
Format/Info : Audio Video Interleave
File size : 160 MiB
Duration : 10mn 6s
Overall bit rate : 2 205 Kbps
Writing application : VirtualDubMod 1.5.10.2 (build 2540/release)
Writing library : VirtualDubMod build 2540/release
Video #0
ID : 0
Format : MPEG-4 Visual
Format profile : [email protected]
Format settings, BVOP : Yes
Format settings, QPel : Yes
Format settings, GMC : 3 warppoints
Format settings, Matrix : Default (H.263)
Codec ID :
Codec ID/Hint :
Duration : 10mn 6s
Bit rate : 1 971 Kbps
Width : 720 pixels
Height : 552 pixels
Display aspect ratio : 4:3
Frame rate : 25.000 fps
Resolution : 24 bits
Colorimetry : 4:2:0
Scan type : Progressive
Bits/(Pixel*Frame) : 0.198
Stream size : 143 MiB (89%)
Writing library : 1.2.1 (UTC 2008-12-04)
Audio #1
ID : 1
Format : AC-3
Format/Info : Audio Coding 3
Codec ID : 2000
Duration : 10mn 6s
Bit rate mode : Constant
Bit rate : 224 Kbps
Channel(s) : 2 channels
Channel positions : L R
Sampling rate : 48.0 KHz
Stream size : 16.2 MiB (10%)
Alignment : Aligned on interleaves
Interleave, duration : 40 ms (1.00 video frame)
Interleave, preload duration : 512 ms
ScreenSHOT














Джерело: &
Українські мультфільми (Збірка 7)

Якщо Ви справді бажаєте підтримати українське - після перегляду, якщо мультфільм вам сподобався, придбайте ліцензійний диск.
Підтримаймо вітчизняних аніматорів і видавців!
Замовити диск можна ТУТ!


Золотий реліз (завантажене не впливає на рейтинг)
 Трекер:    Зареєстрований   

Завантажити / скачати український мультфільм



відео для новачків



 Зареєстрований:   2011-02-14 08:15
 Розмір:   160 MB 
 Оцінка мультфільму:   10/10 (Голосів: 34)
   
Compilyator 
Новенький


З нами з: 21.10.07
Востаннє: 19.11.16
Повідомлень: 10

2011-02-16 13:51  
Супер мультфільм, давно шукав, дякую велике!!!
XaviMessi 
Новенький


З нами з: 07.03.11
Востаннє: 10.03.11
Повідомлень: 2

2011-03-07 22:33  
Відколи побачив на ТБ довго щукав. Дякую!
redcit 
VIP


З нами з: 21.12.10
Востаннє: 07.12.16
Повідомлень: 369

2011-05-22 21:28  
Нарешті знайшов!
Дякую автору за реліз!)

HarakternyK77 
Свій


З нами з: 03.12.09
Востаннє: 07.12.16
Повідомлень: 81

2012-03-17 15:30  
Гарний мультик. Дякую.
tramm 
Новенький


З нами з: 22.02.09
Востаннє: 02.12.16
Повідомлень: 8

2012-11-18 19:26  
Геніальна робота. По ТБ не дивився, якось випадково надибав на Ютубі.
Цікаво, що колись перебирав мульти на Толоці, бачив і цей, але глянувши на скріншоти, подумав, що найближчі кілька років не буду показувати своїй дитині такий ляльковий психоделік - любили наші мультиплікатори таким згрішити - багато мультиків можна дивитися лише якщо ти родом із СРСР або покурив перед переглядом (не подумайте чого, українську анімацію дуже люблю і передивився майже все по багато разів).
Насправді ж цей мультик зроблено в кращих традиціях української анімації - добрий, динамічний, з тонким гумором і підтекстом, чудові ляльки, хороший звуковий ряд - може, він і найкращий. Не проходьте мимо - завантажуйте, не сумнівайтеся! Happy

Ваш часовий пояс: GMT + 2 Години

Нова тема   Відповісти