Завантажити та скачати торренти українською


Igor Dyachenko & Friends – A Soulful Sax. One Session in Kiev (2005) [FLAC] | Jazz

Нові коментарі

Нова тема   Відповісти
Останній раз роздавалося Myfordownloads (2016-10-09)
Автор Повідомлення
Lev 
VIP


З нами з: 14.10.09
Востаннє: 09.12.16
Повідомлень: 1819

2011-02-13 08:05  
Igor Dyachenko & Friends – A Soulful Sax. One Session in Kiev (2005) [FLAC] | Jazz



Стиль: Jazz
Країна, місто: Україна, Київ
Видавець: Lemma
Виконавці:
Ігор Дяченко - тенор-саксофон
Петро Пашко - фортепіано
Фелікс Гершковіч - бас-гітара
Алік Фантаєв - ударні
Сергій Хмельов - перкусія
Вадим Народицький - гітара

Олег Ступка - звукорежисер запису, мастеринг
Пісні:
    01. I wish you love (03:30)
    02. At sundown (05:20)
    03. I'm beginning to see the light (03:37)
    04. Sunday (03:42)
    05. Stardust (05:11)
    06. I'm in the mood for love (03:53)
    07. Stormy weather (06:43)
    08. Alone together (06:09)
    09. Con soul & sax (07:52)

Тривалість: 00:45:56
Мова: інструментальні композиції
Аудіо-кодек: FLAC
Бітрейт: 765 кб/с
Джерело: інший торент-трекер
Додаткова інформація:
log EAC
Exact Audio Copy V0.99 prebeta 5 from 4. May 2009

EAC extraction logfile from 17. February 2010, 8:26

Igor Dyachenko & Friends / A Soulful Sax

Used drive : PHILIPS SPD2412T Adapter: 1 ID: 0

Read mode : Secure
Utilize accurate stream : Yes
Defeat audio cache : Yes
Make use of C2 pointers : No

Read offset correction : 6
Overread into Lead-In and Lead-Out : No
Fill up missing offset samples with silence : Yes
Delete leading and trailing silent blocks : No
Null samples used in CRC calculations : Yes
Used interface : Native Win32 interface for Win NT & 2000

Used output format : User Defined Encoder
Selected bitrate : 128 kBit/s
Quality : High
Add ID3 tag : No
Command line compressor : C:\Program Files\FLAC\flac.exe
Additional command line options : -8 -V -T "ARTIST=%a" -T "TITLE=%t" -T "ALBUM=%g" -T "DATE=%y" -T "TRACKNUMBER=%n" -T "GENRE=%m" -T "COMMENT=EAC FLAC -8" %s

TOC of the extracted CD

Track | Start | Length | Start sector | End sector
---------------------------------------------------------
1 | 0:00.00 | 3:30.28 | 0 | 15777
2 | 3:30.28 | 5:19.48 | 15778 | 39750
3 | 8:50.01 | 3:36.71 | 39751 | 56021
4 | 12:26.72 | 3:41.47 | 56022 | 72643
5 | 16:08.44 | 5:10.41 | 72644 | 95934
6 | 21:19.10 | 3:53.02 | 95935 | 113411
7 | 25:12.12 | 6:42.71 | 113412 | 143632
8 | 31:55.08 | 6:09.27 | 143633 | 171334
9 | 38:04.35 | 7:52.04 | 171335 | 206738

Range status and errors

Selected range

Filename C:\__cd__\Новая папка\Igor Dyachenko & Friends - A Soulful Sax.wav

Peak level 100.0 %
Range quality 100.0 %
Test CRC 03700E8F
Copy CRC 03700E8F
Copy OK

No errors occurred

End of status report
замовити диск в Україні та в інших країнах
http://www.umka.com.ua/ukr/catalogue/solo-projects/igor-dyachenko-a-soulful-sax-one-session-in-kiev.html


Якщо Ви справді бажаєте підтримати українське - після прослуховування, якщо музика вам сподобалась, придбайте ліцензійний диск. Підтримаймо вітчизняних виконавців!


Срібний реліз (на рейтинг впливає 50% завантаженого)
 Трекер:    Зареєстрований   

Завантажити / скачати українську музику



відео для новачків



 Зареєстрований:   2011-02-13 08:05
 Розмір:   251 MB 
 Оцінка музики:   10/10 (Голосів: 14)
   
repa_m33 
Свій


З нами з: 18.07.09
Востаннє: 06.09.16
Повідомлень: 112

2011-02-13 23:30  
Ну і де ж сідер? 1.5 кб/с? Весело.
Lev 
VIP


З нами з: 14.10.09
Востаннє: 09.12.16
Повідомлень: 1819

2011-02-14 19:00  
repa_m33 написано:
Ну і де ж сідер?


Тут я, всьо чотко.

Nomad 
VIP


З нами з: 17.03.08
Востаннє: 08.02.12
Повідомлень: 513

2011-02-20 13:42  
чудова музика, створює гарний настрій, для вечора те що треба
Ваш часовий пояс: GMT + 2 Години

Нова тема   Відповісти