Завантажити та скачати торренти українською


Суддя Дредд / Judge Dredd (1995) 720p Ukr/Eng | Sub Eng

Нові коментарі

Нова тема   Відповісти
Автор Повідомлення
SuperContik 
VIP


З нами з: 25.02.08
Востаннє: 13.09.16
Повідомлень: 332

2011-02-12 12:42  
Суддя Дредд / Judge Dredd (1995) 720p Ukr/Eng | Sub Eng



«In the Future...
One Men is Judge. Jury and Executioner!»


Жанр: фантастика, бойовик
Країна: США



Режисер: Денні Кеннон
Актори: Сільвестер Сталлоне (Sylvester Stallone), Арманд Асанте (Armand Assante), Роб Шнайдер (Rob Schneider), Юрген Прочнов (Jürgen Prochnow), Макс вон Сайдоу (Max von Sydow), Дайeн Лeйн (Diane Lane)

Сюжет:
2115. Глобальна екологічна катастрофа, що викликала численні землетруси, пожежі і повені, перетворила планету в отруйну, випалену пустелю. Залишки цивілізації - кілька величезних мегаполісів, на вулицях яких запанують насильство і хаос. Система правосуддя не могла впоратися з анархією, і були створені елітні підрозділи, які самі затримували, судили, виносили вирок і приводили його у виконання. Їх називали Суддями. Одним з таких суддів був крутий і безпристрасний суддя Дредд, що очищає вулиці Мега-Сіті ...


Тривалість: 01:36:07
Якість: 720р
Відео:
кодек:
розмір кадру: 1280 х 548
бітрейт: 5800 кб/с

Аудіо # 1:
мова: українська
переклад: багатоголосий закадровий
кодек: 2.0
бітрейт: 192 кб/с

Аудіо # 2:
мова: англійська
переклад: оригінал
кодек: 5.1
бітрейт: 1536 кб/с

Переклад і озвучення виконано:


Субтитри:
мова: англійська
тип: програмні (м'які)
формат: *.ass

Велика подяка пану zgryvus за українізований BD постер
Велика подяка пану qeren за зведення української доріжки
МедіаІнфо
Код:

General
Complete name                    : V:\Judge.Dredd.1995..720p.Ukr.Eng.Sub.Eng. [Hurtom].mkv
Format                           : Matroska
File size                        : 5.08 GiB
Duration                         : 1h 36mn
Overall bit rate                 : 7 568 Kbps
Movie name                       : Judge Dredd (1995) - Release for Hurtom
Encoded date                     : UTC 2012-02-03 15:08:31
Writing application              : mkvmerge v4.3.0 ('Escape from the Island') збірка від Sep  5 2010 10:30:51
Writing library                  : libebml v1.0.0 + libmatroska v1.0.0

Video
ID                               : 1
Format                           : AVC
Format/Info                      : Advanced Video Codec
Format profile                   : [email protected]
Format settings, CABAC           : Yes
Format settings, ReFrames        : 11 frames
Muxing mode                      : Container [email protected]
Codec ID                         : V_MPEG4/ISO/AVC
Duration                         : 1h 36mn
Bit rate                         : 5 716 Kbps
Nominal bit rate                 : 5 872 Kbps
Width                            : 1 280 pixels
Height                           : 550 pixels
Display aspect ratio             : 2.35:1
Frame rate                       : 23.976 fps
Resolution                       : 24 bits
Colorimetry                      : 4:2:0
Scan type                        : Progressive
Bits/(Pixel*Frame)               : 0.339
Stream size                      : 3.83 GiB (75%)
Title                            : Release for Hurtom
Writing library                  : core 112 r1834 a51816a
Encoding settings                : cabac=1 / ref=11 / deblock=1:-3:-3 / analyse=0x3:0x133 / me=umh / subme=10 / psy=1 / psy_rd=1.00:0.00 / mixed_ref=1 / me_range=48 / chroma_me=1 / trellis=2 / 8x8dct=1 / cqm=0 / deadzone=21,11 / fast_pskip=1 / chroma_qp_offset=-2 / threads=6 / sliced_threads=0 / nr=0 / decimate=1 / interlaced=0 / constrained_intra=0 / bframes=6 / b_pyramid=2 / b_adapt=2 / b_bias=0 / direct=3 / weightb=1 / open_gop=0 / weightp=2 / keyint=250 / keyint_min=23 / scenecut=40 / intra_refresh=0 / rc_lookahead=40 / rc=2pass / mbtree=1 / bitrate=5872 / ratetol=1.0 / qcomp=0.60 / qpmin=0 / qpmax=51 / qpstep=4 / cplxblur=20.0 / qblur=0.5 / ip_ratio=1.40 / aq=1:1.00

Audio #1
ID                               : 2
Format                           : AC-3
Format/Info                      : Audio Coding 3
Codec ID                         : A_AC3
Duration                         : 1h 36mn
Bit rate mode                    : Constant
Bit rate                         : 192 Kbps
Channel(s)                       : 2 channels
Channel positions                : L R
Sampling rate                    : 48.0 KHz
Video delay                      : 4s 700ms
Stream size                      : 132 MiB (3%)
Title                            : 2.0 - 192 kbps
Language                         : Ukrainian

Audio #2
ID                               : 3
Format                           :
Format/Info                      : Digital Theater Systems
Codec ID                         : A_DTS
Duration                         : 1h 36mn
Bit rate mode                    : Constant
Bit rate                         : 1 510 Kbps
Channel(s)                       : 6 channels
Channel positions                : Front: L C R, Surround: L R, LFE
Sampling rate                    : 48.0 KHz
Resolution                       : 16 bits
Stream size                      : 1.01 GiB (20%)
Title                            : 5.1 @ 1536 kbps

Text
ID                               : 4
Format                           : ASS
Codec ID                         : S_TEXT/ASS
Codec ID/Info                    : Advanced Sub Station Alpha
Скріншоти:



Джерело:
Особиста оцінка: 10 - без зайвих вагань рекомендую всім!


Срібний реліз (на рейтинг впливає 50% завантаженого)
 Трекер:    Зареєстрований   

Завантажити / скачати фільм українською



відео для новачків



 Зареєстрований:   2012-02-03 22:46
 Розмір:   5.08 GB 
 Оцінка фільму:   8.7/10 (Голосів: 18)
   
Andick 
Модератор відео та координатор поширення


З нами з: 03.11.09
Востаннє: 06.12.16
Повідомлень: 1499

2011-02-12 13:03  
SuperContik написано:
Суддя Дредд / Judge Dredd (1995) Ukr/Eng | Sub Eng
SuperContik написано:
1280 х 548

karvai0 
Відео Гуртом - запис з ТБ
Відео Гуртом - запис з ТБ


З нами з: 18.01.10
Востаннє: 09.09.16
Повідомлень: 3686

2011-02-12 13:19  
SuperContik написано:
Якість: 720р

SuperContik написано:
(1995) Ukr/Eng

змiни

SuperContik 
VIP


З нами з: 25.02.08
Востаннє: 13.09.16
Повідомлень: 332

2011-02-12 13:21  
Ого! Опечаточка вийшла, вже поправив.
SuperContik 
VIP


З нами з: 25.02.08
Востаннє: 13.09.16
Повідомлень: 332

2012-02-03 22:48  
По деяким тех причинам торент оновлено. роздача та сама
Віктор 
Відео Гуртом - субтитрування
Відео Гуртом - субтитрування


З нами з: 09.01.10
Востаннє: 09.12.16
Повідомлень: 8664

2012-02-03 22:54  
SuperContik написано:
По деяким тех причинам торент оновлено. роздача та сама

Чудово, звіт мі, скріншоти в png і витягни їх з -під спойлера. І знову ці не потрібні крапки Judge.Dredd.1995..720p.Ukr.Eng.Sub.Eng.

DiGen 
Модератор HD та координатор Команди HD
Модератор HD та координатор Команди HD


З нами з: 12.11.09
Востаннє: 24.06.13
Повідомлень: 1452

2012-02-03 23:09  
karvai0 написано:
Happy
Якщо мерйозно, то відео до нічого - таке враження ніби при ріпуванні замість одних фільтрів дали інші, які в свою чергу погіршили якість відео.

Зауваження: не вказано джерело ріпу. Якщо робота власна - виставляється лог кодування.

Sensetivity 
VIP


З нами з: 03.05.11
Востаннє: 03.01.13
Повідомлень: 2019

2012-02-04 00:15  
DiGen
Скріншоти у jpg куди ти перевірено ліпиш?

braveboy 
Відео Гуртом - команда HD
Відео Гуртом - команда HD


З нами з: 15.06.10
Востаннє: 29.10.16
Повідомлень: 958

2012-02-04 00:32  
Sensetivity написано:

DiGen
Скріншоти у jpg куди ти перевірено ліпиш?


реліз перевіряється

leroykendall 
Модератор HD


З нами з: 03.01.11
Востаннє: 20.11.16
Повідомлень: 749

2012-02-04 17:13  
SuperContik
Дякую що відгукнувся на прохання відновити роздачу.

ВАВУНЯ 
Частий відвідувач


З нами з: 30.06.15
Востаннє: 07.12.16
Повідомлень: 41

2016-03-11 19:18  
1080р де взяти?
дякую

Ваш часовий пояс: GMT + 2 Години

Нова тема   Відповісти