Завантажити та скачати торренти українською


Анжеліка Рудницька – Знайди мене (2006) [FLAC] | Pop

Нові коментарі

Нова тема   Відповісти
Автор Повідомлення
Fritz 
Частий відвідувач


З нами з: 27.04.09
Востаннє: 31.05.15
Повідомлень: 32

2011-02-11 10:59  
Анжеліка Рудницька – Знайди мене (2006) [FLAC] | Pop



Стиль: Pop
Країна, місто: Україна, Київ
Сайти: Офіційний сайт
Видавець: Moon records
Виконавці:
Анжеліка Рудницька
Пісні:

    01. Іграшка [4:10]
    02. Країно моя [4:04]
    03. Пора, пора Вже [4:04]
    04. Пізно [3:27]
    05. У долі своя весна [4:12]
    06. Чорно-біла любов [3:48]
    07. Я тебе кохаю [4:15]
    08. Ніч. Пітьма [3:54]
    09. Будь Зі Мною [3:37]
    10. Зачекай [4:05]
    11. Завтра - Новий рік [3:46]
    12. Знайди мене [3:36]
    Додаткові матеріали: у папці Анжеліка Рудницька – Знайди мене (2006)\Extra\mp3 (МР3 Audio - Аудіо кодек: mp3 Бітрейт аудіо: 128 Kbps)
    13. Рано, рано (remix (mp3)) [3:01]
    14. Ти прийшов (remix (mp3)) [3:17]
    15. Стіна (remix (mp3)) [3:38]
    16. Любов одна (remix (mp3)) [3:57]
    17. Біла Арена (remix (mp3)) [3:22]

Тривалість: 01:04:16
CDDA Аудіо - 00:46:59
МР3 Audio - 00:17:17
Мова: українська
Аудіо-кодек: FLAC
Бітрейт: 975 кб/с
Джерело: Інше
Додаткова інформація:
Про альбом

Своїм новим, четвертим за рахунком, альбомом Анжеліка Рудницька презентує себе в оновленій якості. У всякому разі, здається саме так. Хоча б тому, що аранжування пісень стали більш цікавими, різноманітними, ніж раніше. Маю на увазі, що попередні альбоми було витримано у стилі "поп". Теперішній – містить в своїй музичній канві фрагментарні ознаки багатьох різних стилів. Але – всі пісні поєднані між собою однією загальною ознакою, якістю. Мова йде про легку ніжність всіх мелодій. Більше того, альбом записаний у, так би мовити, безнаціональному стилі – тож має у різних країнах сприйматися однаково добре. До того ж, диск містить і велику мультимедійну частину: 5 реміксів у МР3, 5 відеокліпів, 2 пакети безкоштовних рингтонів, фотоальбом, інтерв’ю та мистецькі роботи виконавиці.
Увага! Треки № 2 та 12 стиснуті. Спектрограми та логи у папці: Анжеліка Рудницька – Знайди мене (2006)\other
"EAC"

Exact Audio Copy V0.99 prebeta 5 from 4. May 2009

EAC extraction logfile from 22. January 2011, 17:38

Анжеліка Рудницька / Знайди мене

Used drive : ASUS DRW-1814BLT Adapter: 0 ID: 0

Read mode : Secure
Utilize accurate stream : Yes
Defeat audio cache : Yes
Make use of C2 pointers : No

Read offset correction : 6
Overread into Lead-In and Lead-Out : No
Fill up missing offset samples with silence : Yes
Delete leading and trailing silent blocks : No
Null samples used in CRC calculations : Yes
Used interface : Native Win32 interface for Win NT & 2000
Gap handling : Appended to previous track

Used output format : User Defined Encoder
Selected bitrate : 320 kBit/s
Quality : High
Add ID3 tag : No
Command line compressor : C:\Program Files (x86)\FLAC\flac.exe
Additional command line options : -8 -V -T "ARTIST=%a" -T "TITLE=%t" -T "ALBUM=%g" -T "DATE=%y" -T "TRACKNUMBER=%n" -T "GENRE=%m" -T "COMMENT=EAC FLAC -8" %s
Use compression offset : 0

TOC of the extracted CD

Track | Start | Length | Start sector | End sector
---------------------------------------------------------
1 | 0:00.00 | 4:10.21 | 0 | 18770
2 | 4:10.21 | 4:03.71 | 18771 | 37066
3 | 8:14.17 | 4:03.64 | 37067 | 55355
4 | 12:18.06 | 3:27.15 | 55356 | 70895
5 | 15:45.21 | 4:12.20 | 70896 | 89815
6 | 19:57.41 | 3:47.43 | 89816 | 106883
7 | 23:45.09 | 4:15.25 | 106884 | 126033
8 | 28:00.34 | 3:53.59 | 126034 | 143567
9 | 31:54.18 | 3:37.31 | 143568 | 159873
10 | 35:31.49 | 4:05.06 | 159874 | 178254
11 | 39:36.55 | 3:45.61 | 178255 | 195190
12 | 43:22.41 | 3:36.20 | 195191 | 211410
13 | 49:30.61 | 8:43.73 | 222811 | 262108

Track 1

Filename E:\waffles.fm\01. Анжеліка Рудницька – Iграшка.wav

Pre-gap length 0:00:02.00

Peak level 94.4 %
Track quality 100.0 %
Test CRC 2027C31C
Copy CRC 2027C31C
Track not present in AccurateRip database
Copy OK

Track 2

Filename E:\waffles.fm\02. Анжеліка Рудницька – Країно моя.wav

Peak level 94.4 %
Track quality 100.0 %
Test CRC 65A29427
Copy CRC 65A29427
Track not present in AccurateRip database
Copy OK

Track 3

Filename E:\waffles.fm\03. Анжеліка Рудницька – Пора, вже пора.wav

Peak level 94.4 %
Track quality 100.0 %
Test CRC D467A207
Copy CRC D467A207
Track not present in AccurateRip database
Copy OK

Track 4

Filename E:\waffles.fm\04. Анжеліка Рудницька – Пізно.wav

Peak level 94.4 %
Track quality 99.9 %
Test CRC 8393E048
Copy CRC 8393E048
Track not present in AccurateRip database
Copy OK

Track 5

Filename E:\waffles.fm\05. Анжеліка Рудницька – У долi своя весна.wav

Peak level 94.4 %
Track quality 100.0 %
Test CRC 989B938B
Copy CRC 989B938B
Track not present in AccurateRip database
Copy OK

Track 6

Filename E:\waffles.fm\06. Анжеліка Рудницька – Чорно-бiла любов.wav

Peak level 94.4 %
Track quality 100.0 %
Test CRC 08EF7256
Copy CRC 08EF7256
Track not present in AccurateRip database
Copy OK

Track 7

Filename E:\waffles.fm\07. Анжеліка Рудницька – Я тебе кохала.wav

Peak level 94.4 %
Track quality 99.9 %
Test CRC 52FCDCED
Copy CRC 52FCDCED
Track not present in AccurateRip database
Copy OK

Track 8

Filename E:\waffles.fm\08. Анжеліка Рудницька – Нiч. Пiтьма.wav

Peak level 94.4 %
Track quality 99.9 %
Test CRC 48AE5462
Copy CRC 48AE5462
Track not present in AccurateRip database
Copy OK

Track 9

Filename E:\waffles.fm\09. Анжеліка Рудницька – Будь зi мною.wav

Peak level 94.4 %
Track quality 100.0 %
Test CRC 3431DF75
Copy CRC 3431DF75
Track not present in AccurateRip database
Copy OK

Track 10

Filename E:\waffles.fm\10. Анжеліка Рудницька – Зачекай.wav

Peak level 94.4 %
Track quality 100.0 %
Test CRC 53A03056
Copy CRC 53A03056
Track not present in AccurateRip database
Copy OK

Track 11

Filename E:\waffles.fm\11. Анжеліка Рудницька – Завтра - Новий рiк.wav

Peak level 94.4 %
Track quality 99.9 %
Test CRC E8ED28E8
Copy CRC E8ED28E8
Track not present in AccurateRip database
Copy OK

Track 12

Filename E:\waffles.fm\12. Анжеліка Рудницька – Знайди мене.wav

Peak level 94.4 %
Track quality 100.0 %
Test CRC 9BFA6FBC
Copy CRC 9BFA6FBC
Track not present in AccurateRip database
Copy OK

None of the tracks are present in the AccurateRip database

No errors occurred

End of status report
"Audiochecker"

AUDIOCHECKER v2.0 beta (build 457) - by Dester - [email protected]
~~~~~~~~~~~~~~~~~~~~~~~~~~~~~~~~~~
-=== DO NOT EDIT THIS FILE! ===-

Path: ...\Анжеліка Рудницька – Знайди мене (2006)

01 -=- 01. Анжеліка Рудницька – Iграшка.flac -=- CDDA (100%)
02 -=- 02. Анжеліка Рудницька – Країно моя.flac -=- MPEG (95%)
03 -=- 03. Анжеліка Рудницька – Пора, вже пора.flac -=- CDDA (100%)
04 -=- 04. Анжеліка Рудницька – Пізно.flac -=- CDDA (99%)
05 -=- 05. Анжеліка Рудницька – У долi своя весна.flac -=- CDDA (100%)
06 -=- 06. Анжеліка Рудницька – Чорно-бiла любов.flac -=- CDDA (100%)
07 -=- 07. Анжеліка Рудницька – Я тебе кохала.flac -=- CDDA (100%)
08 -=- 08. Анжеліка Рудницька – Нiч. Пiтьма.flac -=- CDDA (100%)
09 -=- 09. Анжеліка Рудницька – Будь зi мною.flac -=- CDDA (100%)
10 -=- 10. Анжеліка Рудницька – Зачекай.flac -=- CDDA (100%)
11 -=- 11. Анжеліка Рудницька – Завтра - Новий рiк.flac -=- CDDA (100%)
12 -=- 12. Анжеліка Рудницька – Знайди мене.flac -=- MPEG (95%)

Summary 84,08% CDDA

248791236
"Спектр"


Фотоальбом, безкоштовні рингтони, відео, інтерв’ю та мистецькі роботи виконавиці, ВІДСУТНІ у роздачі
У комплекті: Відскановані обкладинки та диск, лог ЕАС, файл CUE, плейлист M3U, лог Audiochecker-а, спектрограми, CDDA аудіо та MP3 аудіо.


Якщо Ви справді бажаєте підтримати українське - після прослуховування, якщо музика вам сподобалась, придбайте ліцензійний диск. Підтримаймо вітчизняних виконавців!


Срібний реліз (на рейтинг впливає 50% завантаженого)
 Трекер:    Зареєстрований   

Завантажити / скачати українську музику



відео для новачків



 Зареєстрований:   2011-02-11 10:59
 Розмір:   344 MB 
 Оцінка музики:   10/10 (Голосів: 5)
   
mr.killer 
Свій


З нами з: 11.08.10
Востаннє: 03.12.16
Повідомлень: 146

2016-07-26 23:31  
Якщо вірити Вікіпедії то це вже п'ятий а не четвертий альбом (хоча перші два знайти мабуть не реально)

2000 — «Диво» (спільний із Віктором Павліком)
2000 — Іграшка
2002 — «Будь зі мною»
2003 — «Anzhelika.ru»
2006 — «Знайди мене»

Ваш часовий пояс: GMT + 2 Години

Нова тема   Відповісти