Завантажити та скачати торренти українською


Іван Ткаленко - Мова Сонця (2010) [FLAC] | Instrumental / Bandura

Нові коментарі

Нова тема   Відповісти
Автор Повідомлення
ssTAss 
Модератор музики


З нами з: 05.07.08
Востаннє: 03.12.16
Повідомлень: 10932

2011-02-09 22:29  
Іван Ткаленко - Мова Сонця (2010) [FLAC] | Instrumental / Bandura



Стиль: Folk, Instrumental (Bandura)
Країна, місто: Україна, Київ
Видавець: автор
Виконавці:
Іван Ткаленко - акустична бандура, електроакустична бандура, контрабас, басова гітара, клавішні, програмування аранжування та оркестровка
а також

Володимир Голубничий - бандура (6)
Зорік (Сергій Зоря м. Суми, Україна) - басова гітара
Лариса Кравець - флейта
Євген Клименко - кларнет
Євген Бондаренко - фагот
Тарас Довгопол - валторна
Лілія Мелешко - скрипка
Анна Фанок - скрипка
Валентин Дудко - скрипка
Дмитро Носаль - альт
Андрій Циганков - альт
Ольга Мільграндт - віолончель
Любов Головата - віолончель
Наталя Безкровна - віолончель
Микола Кириченко - контрабас
Пісні:
    01 - Зоре моя вечірняя
    02 - Барвінок
    03 - Прелюдія F-Dur
    04 - Барвінок (Романс)
    05 - Вальс
    06 - Фантазія на тему української народної пісні "Ой на Івана, та й на Купала"
    07 - Дума
    08 - Наспів
log
Exact Audio Copy V0.99 prebeta 4 from 23. January 2008

EAC extraction logfile from 7. February 2011, 12:38

Іван Ткаленко / Мова Сонця

Used drive : HL-DT-STDVDRAM GSA-T10N Adapter: 0 ID: 1

Read mode : Secure
Utilize accurate stream : Yes
Defeat audio cache : Yes
Make use of C2 pointers : No

Read offset correction : 667
Overread into Lead-In and Lead-Out : No
Fill up missing offset samples with silence : Yes
Delete leading and trailing silent blocks : No
Null samples used in CRC calculations : Yes
Used interface : Installed external ASPI interface

Used output format : User Defined Encoder
Selected bitrate : 768 kBit/s
Quality : High
Add ID3 tag : No
Command line compressor : C:\Program Files\Audio\Exact Audio Copy v0.9b5\Flac\flac.exe
Additional command line options : -5 -V %s -o %d

TOC of the extracted CD

Track | Start | Length | Start sector | End sector
---------------------------------------------------------
1 | 0:00.00 | 4:56.06 | 0 | 22205
2 | 4:56.06 | 6:07.24 | 22206 | 49754
3 | 11:03.30 | 3:31.12 | 49755 | 65591
4 | 14:34.42 | 3:45.69 | 65592 | 82535
5 | 18:20.36 | 5:17.21 | 82536 | 106331
6 | 23:37.57 | 4:58.66 | 106332 | 128747
7 | 28:36.48 | 5:51.66 | 128748 | 155138
8 | 34:28.39 | 4:33.21 | 155139 | 175634

Range status and errors

Selected range

Filename F:\Music\Іван Ткаленко - 2010 - Мова Сонця\Іван Ткаленко - 2010 - Мова Сонця.wav

Peak level 97.7 %
Range quality 100.0 %
Copy CRC 4B9ED8D4
Copy OK

No errors occurred

End of status report
fooCDtect
Тривалість: 00:39:02
Мова: без слів (instrumental)
Аудіо-кодек: FLAC
Бітрейт: 876 кб/с
Джерело: інший трекер (ріп uriahh, виправив теги)
Додаткова інформація: (в роздачі присутні скани)
Диск вийшов трохи пістрявим, наче спідниця циганки (тут тобі симфонічна музика, а поруч якісь несамовиті барабани, камерні твори), але сподіваюсь теплим і щирим.
Сонце світить однаково усім: і у Алчевську і в Черкасах, і ситому і невмитому.

Усі на сім світі —
І царята, і старчата —
Адамові діти

Тарас Шевченко « Сон»
Так і струни бандури, немов сонячні промені, несуть світло і тепло усім, хто відкритий душею.
Щиро, Іван Ткаленко.


Якщо Ви справді бажаєте підтримати українське - після прослуховування, якщо музика вам сподобалась,
придбайте ліцензійний диск.
Підтримаймо вітчизняних виконавців!


Срібний реліз (на рейтинг впливає 50% завантаженого)
 Трекер:    Зареєстрований   

Завантажити / скачати українську музику



відео для новачків



 Зареєстрований:   2011-02-09 22:29
 Розмір:   246 MB 
 Оцінка музики:   8.4/10 (Голосів: 17)
   
iwan wan 
VIP


З нами з: 01.10.09
Востаннє: 04.12.16
Повідомлень: 1745

2013-05-19 18:23  
http://toloka.to/t46840 даний альбом в мр3
Andreus-82 
Новенький


З нами з: 05.07.13
Востаннє: 15.07.16
Повідомлень: 1

2013-07-27 07:39  
Дуже прошу стати на роздачу. Дякую Всім, хто відгукнеться.
Ваш часовий пояс: GMT + 2 Години

Нова тема   Відповісти