Завантажити та скачати торренти українською


Олесь Журавчак - Співуча сопілка (част. 1) (2004) [APE] | Folk / Instrumental

Нові коментарі

Нова тема   Відповісти
Останній раз роздавалося noiseuser (2016-12-02)
Автор Повідомлення
ssTAss 
Модератор музики


З нами з: 05.07.08
Востаннє: 10.12.16
Повідомлень: 10954

2011-02-09 18:04  
Олесь Журавчак - Співуча сопілка (част. 1) (2004) [APE] | Folk / Instrumental



Стиль: Folk, Instrumental
Країна, місто: Україна, Дрогобич
Видавець: UKRmusic
Виконавці:
Олесь Журавчак


Олесь Журавчак відомий в Україні та за її межами як один з кращих сопілкарів країни, працює з відомими гуртами та зірками естради (Вогнесміх, ансамбль української музики Дніпро, Ethnovation, Ars Nova та ін). Засновник продюсерської компанії "Etno Sound" та її найпалкіший впровадник. Викладач, композитор, непересічна особистість в культурно-мистецькому житті країни.
та Національний оркестр народних інструментів України
Пісні:
    1. Класичні варіації на тему української народної пісні "Їхав козак за Дунай"
    2. Лемківські наспіви
    3. Співуча сопілка
    4. Гуцупьська фантазія
    5. Українські народні мелодії
    6. Українська думка - VI
    7. Фантазія на карпатські теми
    8. Жайвір
    9. Віночок українських народних мелодій
    10. Українські віртуози
    11. Фантазія на теми гуцульських народних мелодій
    12. Коломийки
    13. Хора - стаккато
    14. Наспів
    15. Танок зеленого змія
log
Exact Audio Copy V0.99 prebeta 5 from 4. May 2009

Отчёт EAC об извлечении, выполненном 6. декабря 2010, 15:42

Олесь Журавчак / Співуча Сопілка Ч.1

Дисковод: HL-DT-STDVD-RAM GH22LS30 Adapter: 2 ID: 0

Режим чтения : Достоверность
Использование точного потока : Да
Отключение кэша аудио : Да
Использование указателей C2 : Нет

Коррекция смещения при чтении : 102
Способность читать области Lead-in и Lead-out : Нет
Заполнение пропущенных сэмплов тишиной : Да
Удаление блоков с тишиной в начале и конце : Нет
При вычислениях CRC использовались нулевые сэмплы : Да
Интерфейс : Встроенный Win32-интерфейс для Win NT/2000

Выходной формат : Внутренние WAV-операции
Формат сэмплов : 44.100 Гц; 16 бит; стерео

TOC извлечённого CD

Трек | Старт | Длительность | Начальный сектор | Конечный сектор
---------------------------------------------------------------------
1 | 0:00.00 | 8:58.19 | 0 | 40368
2 | 8:58.19 | 5:46.16 | 40369 | 66334
3 | 14:44.35 | 2:57.36 | 66335 | 79645
4 | 17:41.71 | 3:43.35 | 79646 | 96405
5 | 21:25.31 | 6:17.13 | 96406 | 124693
6 | 27:42.44 | 4:56.19 | 124694 | 146912
7 | 32:38.63 | 6:37.23 | 146913 | 176710
8 | 39:16.11 | 4:10.01 | 176711 | 195461
9 | 43:26.12 | 3:31.16 | 195462 | 211302
10 | 46:57.28 | 2:10.36 | 211303 | 221088
11 | 49:07.64 | 3:33.01 | 221089 | 237064
12 | 52:40.65 | 3:25.54 | 237065 | 252493
13 | 56:06.44 | 1:28.37 | 252494 | 259130
14 | 57:35.06 | 3:36.36 | 259131 | 275366
15 | 61:11.42 | 3:43.30 | 275367 | 292121

Характеристики диапазона извлечения и сообщения об ошибках

Выбранный диапазон

Имя файла C:\Users\DSServer\Desktop\Журавчак Олесь - Співуча Сопілка (Ч.1) (2004)\Олесь Журавчак - Співуча Сопілка Ч.1.wav

Пиковый уровень 97.4 %
Качество диапазона 100.0 %
CRC теста 9F8D0EDE
CRC копии 9F8D0EDE
Копирование... OK

Ошибок не произошло

AccurateRip: сводка

Трек 1 нет в базе данных
Трек 2 нет в базе данных
Трек 3 нет в базе данных
Трек 4 нет в базе данных
Трек 5 нет в базе данных
Трек 6 нет в базе данных
Трек 7 нет в базе данных
Трек 8 нет в базе данных
Трек 9 нет в базе данных
Трек 10 нет в базе данных
Трек 11 нет в базе данных
Трек 12 нет в базе данных
Трек 13 нет в базе данных
Трек 14 нет в базе данных
Трек 15 нет в базе данных

Ни одного трека нет в базе AccurateRip

Конец отчёта
Тривалість: 01:04:55
Мова: без слів (instrumental)
Аудіо-кодек: APE
Бітрейт: 632 кб/с
Джерело: інший трекер (ріп gravia29)
Додаткова інформація: (в роздачі присутні скани)
Перший диск молодого українського віртуоза, який грає більш ніж на десяти народних духових інструментах. На цьому диску музикант грає у супроводі Оркестру народних інструментів Національної радіокомпанії України. Завдяки цьому звучання таких, нібито простих, інструментів, як сопілка, дводенцівка, набувають нових барв, нової глибини. Додайте до цього майстерність Олеся Журавчака як виконавця та потужний позитивний заряд, світлу енергію, які несе його музика - маємо духмяний букет, який не варто обминати стороною. Вдихніть аромати його музичного дихання й натхнення, посміхніться - хіба це життя не варте того, щоби з радістю дивуватися йому кожного дня?


Якщо Ви справді бажаєте підтримати українське - після прослуховування, якщо музика вам сподобалась,
придбайте ліцензійний диск.
Підтримаймо вітчизняних виконавців!


Срібний реліз (на рейтинг впливає 50% завантаженого)
 Трекер:    Зареєстрований   

Завантажити / скачати українську музику



відео для новачків



 Зареєстрований:   2011-02-09 18:04
 Розмір:   326 MB 
 Оцінка музики:   6.1/10 (Голосів: 7)
   
lpershyi 
Попереджень: 2
Попереджень: 2 


З нами з: 04.01.11
Востаннє: 30.11.16
Повідомлень: 2622

2011-11-21 00:09  
Олесь Журавчак - Співуча сопілка (частина 2) 2005 варто тут чекати?
ssTAss 
Модератор музики


З нами з: 05.07.08
Востаннє: 10.12.16
Повідомлень: 10954

2011-11-21 00:27  
ні 2, ні 3 не маю в лослес
Ваш часовий пояс: GMT + 2 Години

Нова тема   Відповісти