Завантажити та скачати торренти українською


Роман Хабаль - Ніч яка місячна (2005) [FLAC] | Pop Instrumental / Smooth Jazz

Нові коментарі

Нова тема   Відповісти
Останній раз роздавалося Efraim (2016-12-07)
Автор Повідомлення
Lev 
VIP


З нами з: 14.10.09
Востаннє: 05.12.16
Повідомлень: 1819

2011-02-09 15:33  
Роман Хабаль - Ніч яка місячна (2005) [FLAC] | Pop Instrumental / Smooth Jazz



Стиль: Pop Instrumental / Smooth Jazz
Країна, місто: Україна, Львів
Видавець: Ліда
Виконавці:
Роман Хабаль - саксофон
Юрко Антонюк та Євген Домчак - додаткові інструменти, аранжування
Юрко Антонюк - запис та мастеринг
Пісні:
    01. Ой, чий то кінь стоїть (05:16)
    02. Карі очі, чорні брови (05:31)
    03. Сильний вітер (04:24)
    04. Ой, там під дубом (04:46)
    05. Стоїть дівча (04:16)
    06. Заграй ми, цигане (03:56)
    07. Одна гора високая (03:51)
    08. Ніч яка місячна (03:42)
    09. Летів пташок (04:09)
    10. Розпустили кучері дівчата (05:17)
    11. Гопак (02:58)
    12. Як би я мала крила орлині (03:44)
    13. Кущ калини (04:49)
    14. Сумна я була (03:58)
    15. Чом ти не прийшов (03:37)

Тривалість: 01:02:37
Мова: інструментальні композиції
Аудіо-кодек: FLAC
Бітрейт: 923 кб/с
Джерело: інший торент-трекер
Додаткова інформація:
Роман Хабаль – високопрофесійний музикант-саксофоніст, композитор за покликанням, викладач Львівського державного музичного училища ім. С. Людкевича – відділення "Музичне мистецтво естради", а також головний диригент Львівського державного цирку.
Основа музики цього інструментального альбому - українські народні пісні та балади + імпровізації у джазово-естрадній площині. Гарний диск для відпочинку.
log
Exact Audio Copy V0.99 prebeta 5 from 4. May 2009

EAC extraction logfile from 30. June 2010, 23:55

Roman Habal / A Monlight Night

Used drive : TSSTcorpDVD-ROM SH-D162D Adapter: 0 ID: 0

Read mode : Secure
Utilize accurate stream : Yes
Defeat audio cache : Yes
Make use of C2 pointers : No

Read offset correction : 6
Overread into Lead-In and Lead-Out : No
Fill up missing offset samples with silence : Yes
Delete leading and trailing silent blocks : No
Null samples used in CRC calculations : Yes
Used interface : Native Win32 interface for Win NT & 2000

Used output format : User Defined Encoder
Selected bitrate : 768 kBit/s
Quality : High
Add ID3 tag : No
Command line compressor : C:\Program Files\Exact Audio Copy\Flac\flac.exe
Additional command line options : -8 -V %s

TOC of the extracted CD

Track | Start | Length | Start sector | End sector
---------------------------------------------------------
1 | 0:00.00 | 5:15.38 | 0 | 23662
2 | 5:15.38 | 5:31.17 | 23663 | 48504
3 | 10:46.55 | 4:24.08 | 48505 | 68312
4 | 15:10.63 | 4:46.19 | 68313 | 89781
5 | 19:57.07 | 4:16.00 | 89782 | 108981
6 | 24:13.07 | 3:55.44 | 108982 | 126650
7 | 28:08.51 | 3:51.12 | 126651 | 143987
8 | 31:59.63 | 3:42.16 | 143988 | 160653
9 | 35:42.04 | 4:08.43 | 160654 | 179296
10 | 39:50.47 | 5:17.29 | 179297 | 203100
11 | 45:08.01 | 2:58.33 | 203101 | 216483
12 | 48:06.34 | 3:43.56 | 216484 | 233264
13 | 51:50.15 | 4:49.03 | 233265 | 254942
14 | 56:39.18 | 3:58.25 | 254943 | 272817
15 | 60:37.43 | 3:36.73 | 272818 | 289090

Range status and errors

Selected range

Filename F:\Reliz Tor.ru\Roman Habal - A Moonlight Night\Roman Habal - A Moonlight Night.wav

Peak level 96.7 %
Range quality 100.0 %
Test CRC 3B829C5E
Copy CRC 3B829C5E
Copy OK

No errors occurred

AccurateRip summary

Track 1 not present in database
Track 2 not present in database
Track 3 not present in database
Track 4 not present in database
Track 5 not present in database
Track 6 not present in database
Track 7 not present in database
Track 8 not present in database
Track 9 not present in database
Track 10 not present in database
Track 11 not present in database
Track 12 not present in database
Track 13 not present in database
Track 14 not present in database
Track 15 not present in database

None of the tracks are present in the AccurateRip database

End of status report
NB! У тегах цього ріпу стоять англійські назви композицій, оскільки диск було зріпано першим релізером як image+cue.
Трекліст на задній обкладинці неповний (лише 10 треків), але насправді на диску їх 15.
замовляти CD тут
http://www.nashformat.com.ua/jazz/product-301


Якщо Ви справді бажаєте підтримати українське - після прослуховування, якщо музика вам сподобалась, придбайте ліцензійний диск. Підтримаймо вітчизняних виконавців!


Срібний реліз (на рейтинг впливає 50% завантаженого)
 Трекер:    Зареєстрований   

Завантажити / скачати українську музику



відео для новачків



 Зареєстрований:   2011-02-09 15:33
 Розмір:   425 MB 
 Оцінка музики:   9.7/10 (Голосів: 11)
   
Tarasyk 
Відео Гуртом - фільмокрай
Відео Гуртом - фільмокрай


З нами з: 26.08.09
Востаннє: 28.11.16
Повідомлень: 5972

2011-02-09 16:04  
Lev, може ріпнете і в 320, а ту роздачу перенесемо в архів?
Lev 
VIP


З нами з: 14.10.09
Востаннє: 05.12.16
Повідомлень: 1819

2011-02-09 16:11  
Tarasyk написано:
Lev, може ріпнете і в 320


на жаль, в мене зараз вкрай мало місця на харді, не пишучий дисковод і незрозуміла ситуація з флеш-пам'яттю.
тому точно не зараз Happy якщо хтось випередить з цим - я не проти.

Nomad 
VIP


З нами з: 17.03.08
Востаннє: 08.02.12
Повідомлень: 513

2011-02-09 16:49  
можу якісно ріпнути і зробити реліз, але спочатку завантажу )))
Ваш часовий пояс: GMT + 2 Години

Нова тема   Відповісти