Завантажити та скачати торренти українською


Назарій Яремчук - Я повернуся [частина 3] (2001) [APE] | Pop

Нові коментарі

Нова тема   Відповісти
Автор Повідомлення
Anonymous 







2011-02-08 23:21  
Назарій Яремчук - Я повернуся [частина 3] (2001) [APE] | Pop



Стиль: Pop
Країна, місто: Україна ,Чернівці
Видавець: NAC
Виконавці:
Назарій Яремчук
Пісні:
    1.Гей, ви, козаченьки
    2. Заграй, дударику
    3. Рано повертати до зими
    4. Полісяночка
    5. Ліхтарики
    6. Одинокий вожак
    7. Налий, шинкарочко
    8. Писанка
    9. Стожари
    10. Яблука падають у траву
    11. Сонце в твоїх очах
    12. Троянда у вазі
    13. Святковий день
    14. Килим з маків
    15. Зачаруй
    16. Золотоволоска
    17. Відпливають білі кораблі
    18. Смерекова хата
    19. Останній лист
    20. Якщо пішла любов

Тривалість: 01:10:16
Мова: українська
Аудіо-кодек: APE
Бітрейт: 766 кб/с
Джерело: Інший трекер
Додаткова інформація:
20 листопада 2001 року Назарію Яремчуку виповнилося би 50 років. До цієї дати компанія NAC випустила збірку кращих пісень видатного українського співака на трьох компакт дисках. Нажаль, деякі пісні записані не дуже якісно, бо вже минуло багато років з часу їх створення. Але головне в піснях - душа - в записах лишилася сповна.

УМКА
log
Exact Audio Copy V0.99 prebeta 4 from 23. January 2008
Отчёт EAC об извлечении, выполненном 16. марта 2008, 15:46
Unknown Artist / Unknown Title
Дисковод: ASUS DVD-E616A2 Adapter: 0 ID: 1
Режим чтения : Достоверность
Использование точного потока : Да
Отключение кэша аудио : Да
Использование указателей C2 : Нет
Коррекция смещения при чтении : 6
Способность читать области Lead-in и Lead-out : Нет
Заполнение пропущенных сэмплов тишиной : Да
Удаление блоков с тишиной в начале и конце : Нет
При вычислениях CRC использовались нулевые сэмплы : Да
Интерфейс : Встроенный Win32-интерфейс для Win NT/2000
Выходной формат : Внутренние WAV-операции
Формат сэмплов : 44.100 Гц; 16 бит; стерео
TOC извлечённого CD
Трек | Старт | Длительность | Начальный сектор | Конечный сектор
---------------------------------------------------------------------
1 | 0:00.00 | 3:39.07 | 0 | 16431
2 | 3:39.07 | 3:30.66 | 16432 | 32247
3 | 7:09.73 | 2:33.22 | 32248 | 43744
4 | 9:43.20 | 2:00.54 | 43745 | 52798
5 | 11:43.74 | 3:39.18 | 52799 | 69241
6 | 15:23.17 | 4:42.43 | 69242 | 90434
7 | 20:05.60 | 3:26.67 | 90435 | 105951
8 | 23:32.52 | 4:07.58 | 105952 | 124534
9 | 27:40.35 | 3:39.21 | 124535 | 140980
10 | 31:19.56 | 3:44.18 | 140981 | 157798
11 | 35:03.74 | 4:16.27 | 157799 | 177025
12 | 39:20.26 | 3:35.37 | 177026 | 193187
13 | 42:55.63 | 3:05.59 | 193188 | 207121
14 | 46:01.47 | 3:16.73 | 207122 | 221894
15 | 49:18.45 | 2:47.25 | 221895 | 234444
16 | 52:05.70 | 2:42.13 | 234445 | 246607
17 | 54:48.08 | 3:37.10 | 246608 | 262892
18 | 58:25.18 | 4:15.12 | 262893 | 282029
19 | 62:40.30 | 3:16.74 | 282030 | 296803
20 | 65:57.29 | 3:16.21 | 296804 | 311524
Характеристики диапазона извлечения и сообщения об ошибках
Выбранный диапазон
Имя файла F:\N.Yaremchuk - Ya Povernusya.wav
Пиковый уровень 100.0 %
Качество диапазона 100.0 %
CRC копии 0A6B419F
Копирование... OK
Ошибок не произошло
Конец отчёта

Якщо Ви справді бажаєте підтримати українське - після прослуховування, якщо музика вам сподобалась, придбайте ліцензійний диск. Підтримаймо вітчизняних виконавців!


Срібний реліз (на рейтинг впливає 50% завантаженого)
 Трекер:    Зареєстрований   

Завантажити / скачати українську музику



відео для новачків



 Зареєстрований:   2011-02-08 23:23
 Розмір:   389 MB 
 Оцінка музики:   10/10 (Голосів: 8)
   
mr.killer 
Свій


З нами з: 11.08.10
Востаннє: 03.12.16
Повідомлень: 146

2016-08-28 09:56  
і як можна зрозуміти напис на обкладинці: виготовлено в 2001, дата відтворення лютий 2004
Ваш часовий пояс: GMT + 2 Години

Нова тема   Відповісти